<?xml version="1.0" standalone="no"?>
<!DOCTYPE svg PUBLIC "-//W3C//DTD SVG 1.1//EN" "http://www.w3.org/Graphics/SVG/1.1/DTD/svg11.dtd" >
<svg xmlns="http://www.w3.org/2000/svg">
<metadata>Generated by IcoMoon</metadata>
<defs>
<font id="icomoon" horiz-adv-x="1024">
<font-face units-per-em="1024" ascent="960" descent="-64" />
<missing-glyph horiz-adv-x="1024" />
<glyph unicode="&#x20;" horiz-adv-x="512" d="" />
<glyph unicode="&#xe900;" glyph-name="ban-ca" d="M752.201 552.779h-0.213c-13.807 0-24.99-11.183-24.99-24.988 0-13.807 11.183-24.99 24.99-24.99h0.213c13.807 0 24.99 11.183 24.99 24.99 0 13.805-11.183 24.988-24.99 24.988zM938.274 371.755c-0.525 3.345-1.088 6.656-1.647 9.971-0.175 1.037-0.363 2.061-0.55 3.085-0.401 2.287-0.815 4.561-1.237 6.822-0.226 1.186-0.439 2.359-0.674 3.55-0.414 2.159-0.841 4.322-1.276 6.46-0.226 1.135-0.448 2.274-0.687 3.396-0.576 2.812-1.173 5.598-1.788 8.384-0.26 1.173-0.525 2.338-0.785 3.499-0.503 2.189-0.99 4.373-1.502 6.549-0.337 1.434-0.687 2.859-1.037 4.297-0.388 1.613-0.785 3.226-1.186 4.821-0.388 1.553-0.789 3.089-1.186 4.625-0.375 1.463-0.764 2.91-1.152 4.348-0.422 1.587-0.849 3.187-1.284 4.762-0.363 1.297-0.725 2.586-1.101 3.874-0.887 3.11-1.788 6.182-2.714 9.259-0.337 1.135-0.674 2.274-1.024 3.409-0.525 1.724-1.071 3.426-1.609 5.137-0.363 1.135-0.725 2.274-1.101 3.409-0.55 1.702-1.114 3.388-1.677 5.073-0.371 1.114-0.747 2.214-1.135 3.311-0.589 1.69-1.161 3.388-1.762 5.060-0.299 0.841-0.602 1.664-0.9 2.5-1.135 3.162-2.3 6.285-3.486 9.382-0.461 1.212-0.926 2.436-1.399 3.648-0.563 1.438-1.135 2.876-1.711 4.301-0.538 1.323-1.062 2.65-1.613 3.959-0.55 1.327-1.101 2.662-1.647 3.972-0.653 1.527-1.301 3.051-1.963 4.561-0.474 1.088-0.939 2.189-1.425 3.277-1.126 2.547-2.274 5.082-3.435 7.595-0.277 0.602-0.563 1.186-0.841 1.775-0.973 2.074-1.946 4.136-2.948 6.185-0.363 0.737-0.725 1.474-1.084 2.199-0.99 1.999-1.975 3.973-2.987 5.935-0.303 0.588-0.602 1.187-0.913 1.775-4.134 7.997-8.474 15.756-12.996 23.303-0.026 0.050-0.047 0.087-0.073 0.137-6.972 11.633-14.409 22.741-22.293 33.286-4.309 5.773-8.772 11.371-13.355 16.818-0.226 0.262-0.439 0.525-0.666 0.787-1.771 2.099-3.558 4.173-5.372 6.223-0.060 0.062-0.124 0.137-0.188 0.2-1.634 1.849-3.285 3.661-4.958 5.473-0.499 0.537-0.99 1.075-1.489 1.599-1.485 1.587-2.974 3.149-4.471 4.711-0.311 0.312-0.614 0.637-0.913 0.95-1.673 1.724-3.388 3.411-5.086 5.098-0.273 0.275-0.55 0.562-0.836 0.837-0.486 0.475-0.986 0.937-1.476 1.412-0.713 0.687-1.425 1.374-2.146 2.062-0.9 0.849-1.788 1.699-2.701 2.537-0.602 0.562-1.199 1.112-1.801 1.662-1.037 0.949-2.061 1.887-3.11 2.824-0.213 0.2-0.435 0.387-0.649 0.575-49.182 43.832-109.406 72.845-179.401 86.39-13.047 25.44-37.235 62.787-76.958 91.238-29.175 20.891-62.276 33.886-98.385 38.609-42.657 5.585-89.663-0.437-139.718-17.893 0 0 0 0-0.012 0 0 0-0.012 0-0.025 0-0.125-0.038-0.25-0.075-0.362-0.125-0.575-0.2-1.124-0.425-1.674-0.662-0.412-0.175-0.812-0.375-1.199-0.575-0.337-0.162-0.675-0.325-1-0.5-0.437-0.238-0.85-0.5-1.262-0.762-0.187-0.112-0.375-0.237-0.55-0.35-0.45-0.3-0.887-0.625-1.324-0.949-0.1-0.075-0.2-0.15-0.3-0.238-7.971-6.322-11.595-17.155-8.221-27.376 2.924-8.896 10.371-15.019 18.955-16.693 58.851-13.269 83.591-42.77 97.898-68.472-22.204-4.948-42.145-10.97-58.714-17.53-18.767-7.422-37.085-17.205-57.614-30.787-88.376-58.339-149.089-128.61-180.451-208.878-32.012-82.001-25.427-153.438-14.269-198.929 0 0 0-0.013 0-0.026 15.906-64.811 56.414-129.847 117.152-188.062 45.306-43.43 85.803-67.934 87.502-68.958 3.686-2.214 7.884-3.439 12.183-3.55 0.125 0 0.425 0 0.887 0 6.997 0 50.967 1.485 81.492 37.423 26.976 31.774 34.646 79.066 22.816 140.565-1.437 7.488-6.185 13.922-12.945 17.446-6.76 3.533-14.719 3.797-21.679 0.7-0.413-0.188-41.883-18.057-92.45-16.158-60.75 2.287-108.518 31.539-142.142 87.002 8.672 15.083 26.864 43.034 54.090 66.799 49.655 43.332 106.232 53.239 168.169 29.461 5.21-2.061 88.163-34.598 196.634-56.213 17.515-3.486 34.697-6.473 51.541-8.986 0.188-0.034 0.384-0.073 0.572-0.098 42.982-6.396 83.268-9.583 120.777-9.583 63.539 0 119.040 9.169 165.982 27.465 0.913 0.35 1.801 0.734 2.714 1.097 2.287 0.913 4.574 1.826 6.822 2.773 3.174 1.353 6.323 2.752 9.408 4.198 10.095 4.71 15.855 15.543 14.118 26.543l-0.013-0.013zM289.777 151.279c32.437-0.947 61.338 4.523 81.742 10.048 2.337-30.899-2.861-54.741-15.394-69.811-11.983-14.417-28.538-18.551-37.385-19.742-16.98 11.196-65.199 45.197-107.769 95.889 27.776-11.46 55.153-15.684 78.818-16.371l-0.013-0.013zM880.725 381.299c-1.050-0.388-2.112-0.751-3.174-1.126-0.602-0.209-1.199-0.41-1.801-0.623-71.535-24.465-157.824-23.403-237.828-12.497-21.44 40.124-55.991 121.101-34.825 195.76 12.070 42.583 41.408 77.943 87.241 105.257 83.516-38.797 164.348-120.088 195.247-284.936-0.666-0.247-1.327-0.499-1.988-0.734-0.96-0.363-1.924-0.725-2.897-1.075l0.026-0.026zM556.693 750.586c-37.747 2.149-72.060-0.125-99.435-3.586-10.483 21.853-27.2 52.454-62.999 76.831 83.868 6.922 134.121-34.386 162.434-73.245zM388.049 431.053c-0.087 0.038-0.175 0.077-0.275 0.102-80.105 30.81-156.336 17.118-220.448-39.599-11.97-10.581-22.403-21.726-31.325-32.474 0.712 74.697 30.875 189.873 180.913 288.908 17.83 11.783 32.774 19.805 48.455 26.015 21.129 8.359 48.443 15.744 79.13 20.729 0.7 0.050 1.399 0.125 2.099 0.25 12.194 1.962 26.637 3.811 42.731 5.036 0.512 0.038 1.028 0.075 1.54 0.112 0.572 0.038 1.161 0.075 1.737 0.125 11.209 0.75 22.639 1.162 34.197 1.162 20.668 0 41.732-1.3 62.549-4.198 0.401-0.050 0.785-0.113 1.186-0.175 2.761-0.387 5.525-0.812 8.273-1.262 0 0 0.013 0 0.026 0 10.906-1.787 22.089-4.098 33.434-7.034-38.844-30.663-64.759-68.272-77.244-112.304-20.702-73.033 0.576-148.229 22.618-199.258-105.481 20.932-187.948 53.218-189.585 53.867h-0.013z" />
<glyph unicode="&#xe901;" glyph-name="card-games" d="M347.692 485.385c-6.3 5.875-15.187 8.090-23.511 5.862-8.325-2.223-14.912-8.597-17.437-16.836l-37.361-122.155c-2.8-9.135-0.137-19.072 6.862-25.6l93.433-87.108c4.687-4.373 10.799-6.711 17.049-6.711 2.162 0 4.337 0.277 6.475 0.849 8.325 2.227 14.912 8.602 17.437 16.836l37.361 122.159c2.799 9.135 0.137 19.072-6.865 25.6l-93.443 87.104zM374.516 303.381l-52.748 49.186 21.099 68.971 52.747-49.182-21.099-68.975zM245.738 526.323c-3.575 13.336-17.286 21.248-30.611 17.673-13.337-3.575-21.249-17.285-17.674-30.609l10.787-40.247c2.988-11.174 13.1-18.539 24.136-18.539 2.138 0 4.325 0.277 6.487 0.862 13.337 3.575 21.249 17.289 17.674 30.613l-10.799 40.247zM509.090 251.789c-3.575 13.338-17.284 21.252-30.609 17.677-13.338-3.575-21.248-17.289-17.673-30.613l10.786-40.247c2.987-11.174 13.099-18.534 24.137-18.534 2.138 0 4.322 0.273 6.485 0.862 13.338 3.575 21.248 17.284 17.673 30.609l-10.799 40.247zM928.866 763.79c-9.737 16.861-25.459 28.936-44.271 33.973l-277.7 74.409c-38.835 10.412-78.895-12.724-89.297-51.56l-10.748-40.11h-148.592c-40.211 0-72.909-32.711-72.909-72.909v-41.286l-144.393-38.685c-19.349-5.187-35.523-17.599-45.535-34.948-10.025-17.349-12.687-37.56-7.5-56.91l122.931-458.789c5.187-19.349 17.599-35.524 34.948-45.534 11.562-6.677 24.386-10.074 37.373-10.074 6.512 0 13.074 0.862 19.537 2.586l273.66 73.335c28.612 7.659 48.922 30.972 54.225 58.257h15.147c28.988 0 54.084 17.011 65.822 41.574l11.273-3.025c6.302-1.69 12.625-2.5 18.863-2.5 32.188 0 61.722 21.513 70.447 54.046l124.006 462.815c5.039 18.812 2.449 38.461-7.287 55.335zM563.435 145.557l-273.661-73.331c-6.449-1.724-13.187-0.836-18.974 2.5s-9.925 8.725-11.649 15.185l-122.931 458.79c-1.725 6.45-0.838 13.187 2.5 18.974s8.724 9.925 15.174 11.65l273.661 73.334c6.451 1.725 13.188 0.837 18.974-2.5 5.79-3.337 9.924-8.725 11.648-15.174l122.944-458.852c3.529-13.299-4.399-27.012-17.685-30.575zM645.743 205.53h-20.736l-118.532 442.379c-5.188 19.349-17.6 35.523-34.948 45.535s-37.559 12.675-56.909 7.487l-79.271-21.236v27.886c0 12.637 10.275 22.911 22.912 22.911h287.485c12.638 0 22.912-10.275 22.912-22.911v-478.874c0-0.162 0-0.337-0.013-0.499-0.137-12.514-10.351-22.677-22.899-22.677zM887.855 721.392l-124.006-462.815c-3.273-12.211-15.859-19.473-28.070-16.196l-17.126 4.587v460.625c0 40.21-32.713 72.909-72.909 72.909h-87.121l7.275 27.161c3.277 12.212 15.863 19.474 28.062 16.199l277.687-74.409c5.909-1.588 10.846-5.375 13.909-10.674s3.887-11.474 2.3-17.387z" />
<glyph unicode="&#xe902;" glyph-name="casino" d="M512 874.667c-234.932 0-426.667-191.75-426.667-426.667 0-234.931 191.75-426.667 426.667-426.667 234.931 0 426.667 191.748 426.667 426.667 0 234.932-191.748 426.667-426.667 426.667zM887.817 472.998h-100.297c-5.060 55.825-27.017 108.363-63.42 151.748l71.198 71.198c52.954-60.427 86.912-137.872 92.518-222.947zM536.998 823.817c85.077-5.603 162.522-39.565 222.946-92.517l-71.198-71.198c-43.388 36.4-95.923 58.359-151.748 63.418v100.297zM487.002 823.817v-100.297c-55.825-5.062-108.362-27.017-151.748-63.418l-71.198 71.2c60.427 52.95 137.87 86.912 222.947 92.515zM228.7 695.947l71.198-71.2c-36.402-43.385-58.359-95.923-63.418-151.748h-100.297c5.603 85.076 39.565 162.522 92.517 222.948zM136.183 423.002h100.297c5.030-55.497 26.755-107.75 62.775-150.985l-70.695-71.808c-52.871 60.407-86.778 137.792-92.376 222.793zM487.002 72.183c-85.15 5.606-162.653 39.625-223.101 92.655l70.593 71.701c43.532-36.783 96.359-58.97 152.508-64.060v-100.297zM285.333 448c0 124.985 101.681 226.667 226.667 226.667 124.983 0 226.667-101.681 226.667-226.667 0-124.983-101.683-226.667-226.667-226.667s-226.667 101.683-226.667 226.667zM536.998 72.183v100.297c56.149 5.090 108.975 27.277 152.508 64.060l70.596-71.701c-60.45-53.030-137.954-87.049-223.104-92.655zM795.439 200.213l-70.694 71.804c36.019 43.234 57.745 95.654 62.775 151.151h100.297c-5.598-85.001-39.505-162.551-92.378-222.955zM569.775 582.385c-12.352 10.023-25.118 20.387-38.669 31.678l-16.004 13.337-16.009-13.337c-13.547-11.292-26.317-21.657-38.673-31.682-69.852-56.69-120.32-97.65-120.32-159.244 0-56.832 42.305-101.581 96.875-103.232v-46.925h149.999v46.925c1.037-0.034 2.082-0.051 3.127-0.051 56.073 0 99.998 45.367 99.998 103.283 0.004 61.594-50.47 102.554-120.324 159.247zM590.101 369.856c-6.571 0-12.463 1.195-18.010 3.648l-35.115 15.539v-66.061h-50.001v59.729l-32.764-10.705c-4.369-1.425-9.118-2.15-14.11-2.15-32.477 0-50.001 27.456-50.001 53.282 0 37.777 40.512 70.656 101.828 120.42 7.535 6.113 15.223 12.353 23.172 18.87 7.945-6.515 15.633-12.755 23.168-18.866 61.321-49.768 101.833-82.647 101.833-120.424 0-25.826-17.527-53.282-50.001-53.282z" />
<glyph unicode="&#xe903;" glyph-name="da-ga" d="M287.184 696.346c-8.833 0-16.016 7.183-16.016 16.016s7.183 16.016 16.016 16.016c8.833 0 16.016-7.183 16.016-16.016s-7.183-16.016-16.016-16.016zM379.778 21.333c-10.188 0-18.479 8.29-18.479 18.479v74.069c-5.187 2.709-9.733 6.515-13.219 11.098-15.88 20.919-27.215 50.462-33.719 87.855-23.001 6.711-44.512 16.73-63.965 29.751-43.563 29.184-74.079 72.516-85.955 121.993-1.146 4.804-0.369 9.754 2.218 13.969 2.575 4.211 6.64 7.159 11.445 8.316 1.417 0.346 2.871 0.516 4.324 0.516 8.575 0 15.954-5.828 17.962-14.165 19.157-79.859 94.308-133.525 187.015-133.525 6.061 0 12.246 0.235 18.381 0.691 93.965 7.049 162.044 55.846 186.795 133.892 10.752 33.89 12.553 78.327 12.787 121.549-10.645 6.037-30.75 16.149-56.55 23.147-19.392 5.261-38.583 7.936-57.054 7.936-29.53 0-57.988-6.801-84.574-20.207-4.879-2.462-10.324-3.755-15.769-3.755-5.864 0-11.679 1.489-16.804 4.322-10.065 5.542-16.743 15.684-17.864 27.153l-0.111 1.133c-4.534 44.167-3.203 123.753 2.846 170.31 0.407 3.179 0.542 6.431 0.382 9.659-1.318 27.448-23.876 49.784-51.361 50.844-0.715 0.025-1.429 0.037-2.144 0.037-13.909 0-27.092-5.31-37.12-14.956-10.595-10.201-16.434-23.901-16.434-38.61 0-1.441 0.061-2.883 0.172-4.3 3.117-39.399-4.164-118.012-25.478-157.090-21.054-38.637-31.736-85.268-31.736-138.622 0-10.189-8.291-18.479-18.48-18.479s-18.48 8.29-18.48 18.479c0 39.177 5.322 75.618 15.831 108.39-24.159 6.135-35.284 19.945-40.384 30.725-9.166 19.391-5.852 45.127 8.451 65.566 4.571 6.53 9.24 15.856 13.712 27.289-1.232-0.887-1.996-1.516-2.23-1.725-3.388-3.203-7.835-4.965-12.504-4.965-1.774 0-3.536 0.259-5.261 0.751-6.246 1.823-11.113 6.985-12.689 13.478-7.503 30.91 1.614 51.004 10.583 62.412 14.402 18.319 39.473 28.816 68.794 28.816h18.085c2.427 6.739 5.643 13.146 9.622 19.133-21.338 19.391-29.371 42.996-22.656 66.81 6.295 22.299 20.562 32.216 31.415 36.614 7.183 2.907 15.191 4.386 23.802 4.386 15.264 0 32.845-4.903 47-13.133 5.445-3.154 9.19-4.509 12.566-4.509 5.322 0 10.706 3.425 20.488 9.659 2.649 1.687 5.384 3.425 8.402 5.26 7.416 4.509 16.373 6.887 25.908 6.887 11.137 0 22.656-3.179 33.338-9.178 23.422-13.17 37.404-36.528 37.404-62.449 0-35.112-19.332-65.961-51.867-82.986 0.086-0.973 0.148-1.885 0.185-2.784 0.259-5.408 0.037-10.854-0.653-16.201-5.568-42.898-6.912-118.48-2.895-160.059 26.414 12.887 54.714 20.34 84.231 22.213 12.467 43.6 39.68 83.085 76.864 111.421 37.316 28.434 83.465 44.745 126.635 44.745 10.189 0 18.479-8.291 18.479-18.479s-8.29-18.48-18.479-18.48c-60.39 0-137.873-41.986-164.988-119.921 14.49-1.441 29.137-4.189 43.627-8.18 44.288-12.209 73.523-32.082 74.743-32.918 5.013-3.452 8.021-9.143 8.021-15.228 0-43.255-1.22-88.235-9.822-125.589 2.368 0.222 4.745 0.333 7.121 0.333 18.543 0 37.406-6.835 56.055-20.314 10.065-7.27 20.045-16.461 29.79-27.388-5.841 36.429-22.519 68.373-32.597 85.094-5.705 9.459-4.582 21.35 2.795 29.568 4.745 5.282 11.494 8.303 18.53 8.303 3.661 0 7.219-0.789 10.569-2.355 25.233-11.729 57.719-36.403 83.174-57.472-18.014 61.747-65.852 115.042-86.451 135.876-7.454 7.54-9.348 18.628-4.826 28.225 4.16 8.821 12.762 14.303 22.443 14.303 0.764 0 1.54-0.037 2.304-0.099 59.396-5.334 98.475-35.111 122.313-62.521-15.031 123.122-101.551 156.485-138.957 165.183-4.804 1.121-8.892 4.041-11.503 8.23-2.615 4.189-3.426 9.141-2.317 13.958 1.958 8.414 9.348 14.291 17.984 14.291 1.408 0 2.825-0.16 4.203-0.48 32.994-7.675 80.055-26.266 116.941-71.295 35.665-43.551 53.444-101.442 52.851-172.071-0.098-11.422-7.599-20.979-18.675-23.791-2.048-0.516-4.143-0.777-6.225-0.777-9.041 0-17.075 4.796-21.495 12.826-11.546 20.932-37.218 56.67-83.639 72.405 29.705-35.422 72.094-96.747 78.281-163.964 0.934-10.18-4.348-19.725-13.453-24.346-3.477-1.762-7.356-2.697-11.213-2.697-6.012 0-11.827 2.214-16.358 6.234-14.404 12.736-40.572 35.157-65.924 53.12 11.853-27.819 22.963-65.749 19.746-105.788-0.836-10.509-8.265-19.345-18.479-21.982-2.018-0.516-4.1-0.785-6.182-0.785-8.303 0-16.004 4.126-20.599 11.038-12.442 18.739-45.077 62.336-79.305 62.336-6.946 0-13.734-1.835-20.156-5.444-0.38-0.209-0.764-0.405-1.182-0.602-16.286-35.814-41.886-66.517-74.142-88.866-32.128-22.259-71.932-37.167-115.311-43.191-3.031-25.749-6.888-48.738-9.635-63.706-2.218-12.1-9.893-22.447-20.734-28.113v-74.057c0-10.189-8.291-18.479-18.48-18.479h-0.049zM353.66 204.753c5.556-24.346 13.761-44.13 23.852-57.412 0.493-0.653 1.355-1.058 2.255-1.058 1.404 0 2.612 0.998 2.858 2.364 2.341 12.727 5.618 32.132 8.402 54.097-1.429-0.026-2.772-0.038-4.066-0.038-11.199 0-22.385 0.691-33.3 2.048zM198.96 654.918c-5.495-18.024-14.242-41.826-25.97-58.593-5.581-7.983-9.203-20.365-5.322-28.582 3.401-7.17 12.652-10.324 20.734-11.692 2.144 4.497 4.374 8.895 6.653 13.084 8.735 16.016 16.237 47.296 19.736 82.112-5.297 1.811-10.595 3.055-15.831 3.671zM203.112 706.612c-17.642 0-32.5-5.495-39.744-14.71-1.035-1.306-1.922-2.735-2.661-4.25 9.77 3.166 19.921 4.768 30.295 4.768 8.476 0 17.124-1.084 25.748-3.24-0.025 5.975-0.234 11.494-0.628 16.459-0.025 0.32-0.049 0.641-0.074 0.973h-12.936zM306.339 803.36c1.195 0 2.402-0.025 3.597-0.074 31.588-1.22 60.207-19.059 75.632-46.84 16.311 10.953 25.946 28.114 25.946 46.606 0 12.394-6.936 23.703-18.554 30.245-5.113 2.871-10.534 4.46-15.276 4.46-2.698 0-5.002-0.53-6.653-1.54-2.673-1.626-5.236-3.252-7.712-4.829-11.95-7.613-24.282-15.461-40.224-15.461-10.016 0-20.241 3.104-31.255 9.498-8.637 5.014-19.552 8.131-28.484 8.131-3.819 0-7.145-0.567-9.893-1.676-3.277-1.33-7.33-3.93-9.72-12.393-2.92-10.324 1.577-20.648 13.367-30.689 14.624 9.548 31.576 14.562 49.23 14.562zM354.769 341.389c-1.86 0-3.745 0.047-5.593 0.137-24.627 1.143-48.072 10.372-66.010 25.98-15.116 13.146-23.235 29.854-23.494 48.307-0.567 40.887 37.046 76.689 41.345 80.631 3.425 3.145 7.86 4.881 12.505 4.881 5.162 0 10.115-2.18 13.601-5.978 6.887-7.488 6.406-19.191-1.072-26.091-7.737-7.159-29.753-32.29-29.42-52.988 0.123-7.851 3.659-14.673 10.792-20.881 7.343-6.396 23.272-17.114 47.37-17.114 21.658 0 45.325 8.525 70.321 25.34 15.486 10.423 31.294 15.697 46.974 15.697 10.266 0 20.331-2.253 29.939-6.69 17.826-8.243 28.002-21.389 29.099-22.852 6.11-8.158 4.437-19.763-3.721-25.873-3.226-2.415-7.049-3.682-11.063-3.682-5.777 0-11.298 2.748-14.771 7.356-0.478 0.602-6.357 7.735-15.868 11.874-4.335 1.886-8.87 2.846-13.478 2.846-8.363 0-17.271-3.14-26.487-9.34-31.144-20.941-61.734-31.561-90.969-31.561z" />
<glyph unicode="&#xe904;" glyph-name="game-nhanh" d="M512 874.667c-235.638 0-426.667-191.028-426.667-426.667s191.028-426.667 426.667-426.667c235.639 0 426.667 191.027 426.667 426.667-0.273 235.527-191.138 426.393-426.667 426.667zM854.349 274.987l-74.027 42.722c16.644 34.108 26.581 71.1 29.261 108.958h85.333c-2.837-52.826-16.653-104.486-40.567-151.68zM490.667 150.417v-85.333c-52.838 2.837-104.506 16.661-151.7 40.58l42.735 74.010c34.115-16.653 71.108-26.581 108.966-29.257zM533.333 150.417c37.858 2.675 74.85 12.604 108.966 29.257l42.735-74.010c-47.194-23.919-98.863-37.743-151.701-40.58v85.333zM512 191.996c-141.387 0-256.003 114.615-256.003 256.004 0 141.387 114.616 256.003 256.003 256.003 141.389 0 256.004-114.616 256.004-256.003-0.158-141.321-114.684-255.846-256.004-256.004zM129.083 426.667h85.332c2.676-37.858 12.604-74.85 29.251-108.958l-74.017-42.722c-23.913 47.194-37.728 98.854-40.567 151.68zM169.65 621.014l74.030-42.721c-16.654-34.108-26.589-71.101-29.264-108.96h-85.332c2.839 52.826 16.654 104.487 40.567 151.681zM533.333 745.585v85.332c52.838-2.839 104.508-16.654 151.701-40.579l-42.735-74.010c-34.116 16.654-71.108 26.582-108.966 29.258zM490.667 745.585c-37.858-2.676-74.851-12.604-108.966-29.258l-42.735 74.010c47.194 23.919 98.862 37.741 151.7 40.579v-85.332zM809.583 469.333c-2.675 37.858-12.604 74.851-29.248 108.96l74.022 42.721c23.91-47.194 37.726-98.855 40.559-151.681h-85.333zM833.088 658.013l-73.873-42.643c-21.35 31.419-48.444 58.516-79.863 79.863l42.667 73.867c44.233-29.043 82.031-66.849 111.070-111.087zM301.993 769.1l42.656-73.874c-31.419-21.347-58.516-48.437-79.857-79.857l-73.88 42.643c29.036 44.238 66.842 82.044 111.081 111.087zM190.913 237.986l73.873 42.645c21.348-31.42 48.444-58.517 79.863-79.859l-42.656-73.873c-44.238 29.043-82.044 66.85-111.081 111.087zM722.005 126.899l-42.667 73.873c31.42 21.342 58.513 48.439 79.863 79.859l73.873-42.645c-29.030-44.237-66.837-82.044-111.070-111.087zM639.996 490.688c-14.98-0.183-28.732-8.307-36.105-21.333h-31.825c-6.438 18.074-20.663 32.29-38.737 38.737v31.815c13.026 7.389 21.154 21.139 21.333 36.113 0 23.561-19.102 42.662-42.667 42.662-23.561 0-42.662-19.101-42.662-42.662 0.179-14.974 8.307-28.73 21.333-36.113v-31.815c-18.074-6.447-32.299-20.663-38.737-38.737h-31.823c-7.383 13.026-21.133 21.15-36.107 21.333-23.561 0-42.669-19.106-42.669-42.671 0-23.561 19.108-42.667 42.669-42.667 14.974 0.183 28.724 8.307 36.107 21.333h31.823c6.438-18.074 20.663-32.29 38.737-38.737v-31.817c-13.026-7.39-21.154-21.137-21.333-36.113 0-23.561 19.102-42.662 42.662-42.662 23.565 0 42.667 19.102 42.667 42.662-0.179 14.976-8.307 28.732-21.333 36.113v31.817c18.074 6.447 32.299 20.663 38.737 38.737h31.825c7.381-13.026 21.133-21.15 36.105-21.333 23.561 0 42.662 19.106 42.662 42.667 0 23.565-19.102 42.671-42.662 42.671zM511.996 426.684c-11.785 0-21.338 9.553-21.338 21.333 0 11.785 9.553 21.338 21.338 21.338s21.333-9.553 21.333-21.338c-0.013-11.776-9.557-21.321-21.333-21.333z" />
<glyph unicode="&#xe905;" glyph-name="lo-de" d="M788.023 372.745v184.142c0 9.199-7.467 16.666-16.666 16.666h-50.914c-3.917 67.181-31.45 133.228-82.667 184.443-110.895 110.895-291.321 110.895-402.216 0-51.215-51.215-78.747-117.262-82.664-184.443h-50.898c-9.2 0-16.666-7.467-16.666-16.666 0-93.846 36.549-182.077 102.913-248.44 45.648-45.649 101.646-77.197 162.71-92.429l-28.082-127.744h-70.264c-9.2 0-16.666-7.467-16.666-16.67 0-9.199 7.466-16.666 16.666-16.666h83.63c0 0 0.033 0 0.067 0s0.050 0 0.083 0h200.625c0 0 0.051 0 0.085 0 0.013 0 0.030 0 0.064 0h83.631c9.199 0 16.666 7.467 16.666 16.666 0 9.203-7.467 16.67-16.666 16.67h-70.281l-28.083 127.744c61.065 15.232 117.065 46.78 162.709 92.429 29.133 29.133 52.501 62.464 69.581 98.645v-117.943c0-9.199 7.467-16.666 16.666-16.666h117.146c27.652 0 50.133 22.481 50.133 50.129s-22.498 50.133-50.133 50.133h-100.51zM434.603 305.946c-8.282 1.033-14.716 8.098-14.716 16.666 0 9.267 7.535 16.802 16.798 16.802 9.267 0 16.802-7.535 16.802-16.802 0-8.567-6.434-15.633-14.716-16.666-1.387 0-2.769 0-4.169 0zM436.685 372.745c-27.648 0-50.13-22.502-50.13-50.133 0-4.117 0.517-8.115 1.45-11.947-47.248 9.263-92.329 32.162-128.861 68.693-26.966 26.97-46.481 58.581-58.598 92.297 52.898-41.148 142.911-65.28 236.741-65.28 19.831 0 39.846 1.101 59.699 3.319 9.148-12.169 23.714-20.066 40.081-20.066 23.663 0 43.529 16.482 48.781 38.562 35.366 11.285 64.747 26.133 86.963 43.516-12.117-33.732-31.633-65.365-58.615-92.348-36.531-36.531-81.596-59.413-128.845-68.681 0.934 3.836 1.451 7.834 1.451 11.951 0 27.648-22.464 50.116-50.116 50.116zM486.886 690.681c-9.267 0-16.802 7.533-16.802 16.8s7.535 16.799 16.802 16.799c9.263 0 16.798-7.533 16.798-16.799s-7.535-16.8-16.798-16.8zM486.886 657.349c11.43 0 21.965 3.85 30.396 10.316 48.431-7.933 91.729-23.133 122.581-43.148 17.549-11.399 37.965-28.749 45.197-50.964h-265.173c0 0 0 0.050 0 0.067 0 27.649-22.482 50.131-50.131 50.131s-50.132-22.482-50.132-50.131c0-0.017 0-0.050 0-0.067h-131.328c18.083 55.881 125.012 100.546 248.372 100.546 4.237 0 8.585-0.067 13.001-0.167 9.182-10.166 22.485-16.583 37.218-16.583zM581.999 461.99c-8.218 16.499-25.25 27.883-44.915 27.883-26.85 0-48.815-21.201-50.065-47.748-106.547-10.449-218.959 14.298-272.374 61.013-13.499 11.814-22.333 24.23-26.416 37.065h144.161c9.183-10.266 22.516-16.735 37.348-16.735s28.166 6.468 37.349 16.735h277.922c-10.014-30.798-47.279-59.265-103.010-78.213zM520.282 439.74c0 9.267 7.535 16.802 16.802 16.802 9.263 0 16.798-7.535 16.798-16.802s-7.535-16.798-16.798-16.798c-9.267 0-16.802 7.531-16.802 16.798zM369.739 556.82c-9.266 0-16.799 7.533-16.799 16.799s7.533 16.8 16.799 16.8c9.266 0 16.8-7.533 16.8-16.8s-7.533-16.799-16.8-16.799zM259.143 734.429c48.948 48.948 113.245 73.414 177.542 73.414 64.299 0 128.597-24.483 177.545-73.414 27.098-27.099 46.699-58.914 58.782-92.829-32.448 25.599-79.714 45.598-136.862 56.598 0.567 3.017 0.883 6.133 0.883 9.3 0 27.649-22.481 50.131-50.133 50.131-27.648 0-50.129-22.482-50.129-50.131 0-0.017 0-0.050 0-0.067-0.017 0-0.051 0-0.068 0-73.429 0-142.877-14.333-195.575-40.365-15.466-7.633-29.049-16.083-40.649-25.182 12.1 33.798 31.632 65.514 58.665 92.546zM516.348 88.273h-159.358l26.649 121.225c17.399-2.615 35.116-3.964 53.030-3.964 17.916 0 35.635 1.348 53.035 3.964l26.645-121.225zM436.685 238.865c-169.759 0-308.887 133.713-317.586 301.355h33.815c3.9-67.179 31.449-133.227 82.664-184.444 54.398-54.396 125.528-82.095 196.977-83.11 1.365-0.119 2.731-0.183 4.13-0.183s2.769 0.064 4.134 0.183c71.445 1.033 142.579 28.715 196.975 83.11 51.217 51.217 78.763 117.265 82.662 184.444h33.818c-8.7-167.642-147.827-301.355-317.589-301.355zM888.503 305.813h-100.48v33.6h100.48c9.263 0 16.798-7.535 16.798-16.802s-7.535-16.798-16.798-16.798z" />
<glyph unicode="&#xe906;" glyph-name="no-hu" d="M573.845 392.034c0 10.914-8.879 19.78-19.78 19.78s-19.78-8.879-19.78-19.78c0-32.179 24.695-58.701 56.115-61.611v-8.533c0-10.901 8.879-19.78 19.78-19.78s19.78 8.879 19.78 19.78v8.533c31.441 2.91 56.119 29.431 56.119 61.611 0 32.175-24.695 58.697-56.119 61.606v44.134c9.523-2.551 16.559-11.247 16.559-21.559 0-10.901 8.879-19.776 19.78-19.776s19.78 8.875 19.78 19.776c0 32.179-24.695 58.702-56.119 61.612v8.533c0 10.901-8.879 19.78-19.78 19.78s-19.78-8.879-19.78-19.78v-8.533c-31.437-2.91-56.115-29.433-56.115-61.612 0-32.175 24.695-58.697 56.115-61.606v-44.134c-9.519 2.551-16.555 11.247-16.555 21.559zM573.845 476.215c0 10.313 7.036 19.008 16.555 21.559v-43.115c-9.519 2.551-16.555 11.247-16.555 21.555zM646.519 392.034c0-10.313-7.036-19.008-16.559-21.559v43.115c9.523-2.551 16.559-11.247 16.559-21.555zM926.775 396.531c-31.735 134.81-98.59 218.518-154.18 267.302 50.854-7.958 68.762-29.448 69.683-30.616 6.182-8.698 18.364-10.901 27.209-4.9 8.896 6.018 11.349 18.218 5.444 27.262-0.789 1.184-18.974 27.705-70.49 41.961 11.034 12.365 17.395 28.314 17.758 45.118v0.46c-1.924 31.997-23.053 59.193-53.141 69.157 0.905 8.764 1.365 17.61 1.382 26.406-0.017 11.362-5.692 21.885-15.177 28.149-9.489 6.265-21.393 7.366-31.983 2.861-7.595-3.437-14.63-7.958-20.928-13.434l-0.346-0.329c-5.756-5.919-13.794-9.29-22.148-9.208-8.303-0.099-16.277 3.305-22.033 9.208l-0.213 0.214c-26.752 24.697-68.646 24.697-95.381 0l-0.23-0.214c-5.756-5.936-13.815-9.356-22.182-9.191-8.303-0.033-16.26 3.288-21.999 9.191l-0.346 0.329c-6.281 5.459-13.303 9.981-21.013 13.483-10.458 4.407-22.345 3.305-31.799-2.959s-15.13-16.771-15.159-28.133c0-33.378 6.281-94.495 47.189-137.919-17.267-10.951-33.724-23.266-49.084-36.765v92.834c0 17.692-11.772 33.723-33.163 45.135-20.241 10.803-47.88 16.738-77.822 16.738s-57.581-5.952-77.822-16.738c-21.392-11.411-33.164-27.442-33.164-45.135v-136.225c-50.577-6.347-84.185-30.205-84.185-60.212v-352.524c-35.236-10.543-56.118-30.669-56.118-54.379v-70.157c0-17.694 11.773-33.724 33.164-45.137 20.241-10.803 47.881-16.738 77.822-16.738 52.090 0 93.64 17.463 106.662 44.083 23.578-11.311 49.64-16.836 75.833-16.030 29.908 0 57.499 5.952 77.723 16.738 21.393 11.409 33.165 27.443 33.165 45.133v182.396c0 17.694-11.772 33.724-33.165 45.133-20.241 10.803-47.881 16.742-77.806 16.742-5.097 0-10.194-0.183-15.291-0.546v205.252c0 32.77-40.975 58.141-98.211 61.446v87.046c22.411-9.849 46.927-14.65 71.409-13.943 24.516-0.707 48.998 4.094 71.409 13.943v-84.415c-9.602-10.819-18.3-21.606-26.587-32.885l-0.131-0.198c-5.936-8.846-3.864-20.701 4.735-26.998s20.521-4.703 27.163 3.617l0.131 0.164c8.862 11.987 18.465 23.628 28.594 34.661l0.311 0.345c25.766 28.626 55.74 52.846 89.118 72.018 3.191-1.414 6.447-2.647 9.766-3.7l-28.493-26.587c-3.866-3.601-6.084-8.5-6.268-13.795-0.179-5.278 1.711-10.326 5.312-14.19 3.618-3.864 8.499-6.083 13.794-6.264 5.278-0.198 10.325 1.71 14.174 5.311l50.923 47.502v-33.033c0-10.918 8.879-19.78 19.78-19.78s19.78 8.879 19.78 19.78v33.098l50.923-47.485c5.146-4.818 12.531-6.528 19.285-4.472 6.741 2.055 11.921 7.596 13.517 14.469s-0.623 14.124-5.773 18.942l-28.723 26.752c3.307 1.053 6.528 2.302 9.702 3.716 38.737-21.589 155.102-100.611 199.249-287.988 19.435-82.56 12.642-145.434-20.16-186.854-41.813-52.745-114.769-55.411-128.973-55.411h-199.104c-10.914 0-19.78-8.879-19.78-19.78s8.879-19.78 19.78-19.78h199.104c24.431 0 108.207 5.082 159.966 70.409 40.695 51.401 50.001 125.572 27.657 220.493l-0.047 0.051zM782.639 742.511c-0.196-19.714-22.737-35.877-50.33-36.075-1.412 0-2.829 0.066-4.258 0.165 15.851 19.188 27.375 41.649 33.741 65.753 11.593-5.558 19.55-16.722 20.847-29.843zM685.466 765.547c1.89 6.79 0 14.14-4.949 19.172-4.932 5.031-12.25 7.054-19.072 5.295-6.827-1.76-12.233-7.070-14.11-13.779-7.334-24.878-18.398-48.341-32.9-69.798h-8.354c-14.485 21.474-25.549 44.954-32.9 69.716-1.412 5.097-4.736 9.323-9.34 11.921s-9.946 3.239-15.027 1.825c-5.099-1.414-9.323-4.736-11.921-9.339s-3.238-9.948-1.792-15.127c5.952-20.011 13.926-39.412 23.774-57.828-7.957 1.611-15.552 4.966-21.999 9.816-38.080 29.728-46.204 81.637-47.582 110.772 1.003-0.756 1.971-1.562 2.923-2.4 12.86-12.020 29.598-18.629 47.091-18.629h1.020c17.613 0 34.368 6.626 47.223 18.679l0.149 0.148c5.82 5.87 13.892 9.241 22.148 9.241 8.252 0 16.341-3.371 22.148-9.241l0.145-0.148c12.992-12.184 29.995-18.86 47.684-18.679 17.758-0.132 34.726 6.478 47.718 18.612 0.969 0.855 1.954 1.661 2.991 2.45-1.399-29.169-9.536-81.061-47.501-110.723-6.396-4.801-13.632-8.090-21.312-9.718 9.818 18.366 17.792 37.719 23.744 57.763zM196.287 131.183c-46.088 0-71.409 16.755-71.409 22.31 0 5.559 25.321 22.315 71.409 22.315s71.409-16.755 71.409-22.315c0-5.555-25.321-22.31-71.409-22.31zM196.287 91.605c24.499-0.708 48.998 4.092 71.409 13.943v-22.217c0-5.555-25.321-22.31-71.409-22.31s-71.409 16.755-71.409 22.31v22.217c22.411-9.852 46.91-14.635 71.409-13.943zM196.205 215.369h-0.049c-5.031 0-10.112-0.183-15.144-0.546v297.609c22.411-9.847 46.91-14.635 71.409-13.943 24.499-0.704 48.998 4.096 71.409 13.943v-164.275c-35.236-10.539-56.118-30.665-56.118-54.374v-92.373c-20.98 9.207-43.77 14.007-66.691 14.007-1.595 0-3.223 0-4.817-0.047zM252.405 538.065c-46.088 0-71.409 16.755-71.409 22.313s25.321 22.313 71.409 22.313c46.088 0 71.409-16.755 71.409-22.313s-25.321-22.313-71.409-22.313zM307.273 245.85c22.411-9.847 46.91-14.63 71.409-13.943 24.516-0.687 49 4.096 71.408 13.943v-134.464c0-5.559-25.32-22.315-71.408-22.315s-71.409 16.755-71.409 22.315v134.464zM378.682 271.484c-46.088 0-71.409 16.755-71.409 22.315 0 5.555 25.321 22.31 71.409 22.31s71.408-16.755 71.408-22.31c0-5.559-25.32-22.315-71.408-22.315zM408.016 756.816c0-5.558-25.321-22.313-71.409-22.313s-71.409 16.755-71.409 22.313c0 5.557 25.321 22.312 71.409 22.312s71.409-16.755 71.409-22.312zM739.127 201.353c-10.918 0-19.78-8.879-19.78-19.78s8.879-19.78 19.78-19.78c12.873 0 78.925 2.368 115.985 49.143l0.149 0.201c17.425 23.953 26.718 52.267 26.867 81.899 0.213 5.227-1.596 10.244-5.133 14.123-0.444 0.495-0.905 0.956-1.395 1.399-3.388 3.059-7.697 4.851-12.365 5.065-10.918 0.346-19.981-7.846-20.638-18.748v-0.341c0.098-21.278-6.327-41.715-18.594-59.098-25.766-32.375-75.191-34.018-84.86-34.018l-0.017-0.064z" />
<glyph unicode="&#xe907;" glyph-name="poker-table" d="M653.602 162.957h-283.206c-157.214 0-285.062 127.923-285.062 285.065 0 157.14 127.848 285.062 285.062 285.062h283.206c157.218 0 285.065-127.848 285.065-285.062s-127.846-285.065-285.065-285.065zM370.396 689.849c-133.335 0-241.828-108.493-241.828-241.828 0-133.338 108.493-241.83 241.828-241.83h283.206c133.338 0 241.83 108.493 241.83 241.83 0 133.335-108.493 241.828-241.83 241.828h-283.206zM653.602 228.804h-283.207c-120.877 0-219.21 98.334-219.21 219.209 0 120.879 98.333 219.212 219.21 219.212h63.777c11.938 0 21.581-9.641 21.581-21.58s-9.643-21.58-21.581-21.58h-63.777c-96.998 0-175.977-78.978-175.977-175.975s78.978-175.979 175.977-175.979h283.207c96.998 0 175.979 78.98 175.979 175.979s-78.98 175.975-175.979 175.975h-71.189c-11.942 0-21.581 9.641-21.581 21.58s9.638 21.58 21.581 21.58h71.189c120.879 0 219.213-98.333 219.213-219.212 0-120.875-98.334-219.209-219.213-219.209zM564.689 352.35h-105.378c-11.938 0-21.581 9.643-21.581 21.581v148.169c0 11.939 9.643 21.579 21.581 21.579h105.378c11.938 0 21.581-9.641 21.581-21.579v-148.169c0-11.938-9.643-21.581-21.581-21.581zM480.892 395.511h62.144v104.934h-62.144v-104.934zM735.919 352.35h-105.378c-11.942 0-21.581 9.643-21.581 21.581v148.169c0 11.939 9.638 21.579 21.581 21.579h105.378c11.938 0 21.577-9.641 21.577-21.579v-148.169c0-11.938-9.638-21.581-21.577-21.581zM652.117 395.511h62.144v104.934h-62.144v-104.934zM393.475 352.35h-105.378c-11.939 0-21.58 9.643-21.58 21.581v148.169c0 11.939 9.641 21.579 21.58 21.579h105.378c11.939 0 21.58-9.641 21.58-21.579v-148.169c0-11.938-9.641-21.581-21.58-21.581zM309.751 395.511h62.144v104.934h-62.144v-104.934zM508.322 624.027c-5.709 0-11.273 2.299-15.275 6.304-4.079 4.079-6.379 9.641-6.379 15.276 0 1.409 0.149 2.818 0.444 4.227 0.299 1.409 0.67 2.744 1.263 4.079 0.516 1.26 1.186 2.521 2.001 3.708 0.742 1.187 1.63 2.299 2.671 3.263 8.009 8.083 22.468 8.083 30.554 0 0.964-0.964 1.852-2.077 2.667-3.263 0.819-1.187 1.485-2.447 2.005-3.708 0.516-1.335 0.964-2.67 1.186-4.079 0.294-1.409 0.444-2.818 0.444-4.227 0-5.636-2.3-11.272-6.302-15.276-4.006-4.005-9.643-6.304-15.279-6.304z" />
<glyph unicode="&#xe908;" glyph-name="quay-so" d="M623.313 540.745h-389.564c-15.367 0-27.827-12.459-27.827-27.827v-241.161c0-15.364 12.458-27.827 27.827-27.827h389.564c15.369 0 27.827 12.459 27.827 27.827v241.165c0 15.364-12.459 27.823-27.827 27.823zM335.777 299.588h-74.203v185.506h74.203v-185.506zM465.634 299.588h-74.205v185.506h74.205v-185.506zM595.486 299.588h-74.202v185.506h74.202v-185.506zM855.189 874.667c-46.033 0-83.477-37.449-83.477-83.478 0-36.277 23.262-67.205 55.65-78.692v-227.394h-55.65v46.374c0 189.234-153.954 343.189-343.189 343.189s-343.189-153.955-343.189-343.189v-426.667c0-46.029 37.449-83.477 83.478-83.477h519.419c46.033 0 83.482 37.449 83.482 83.477v324.638h83.477c15.364 0 27.827 12.459 27.827 27.827v255.221c32.384 11.487 55.65 42.415 55.65 78.692 0 46.030-37.449 83.478-83.477 83.478zM716.058 104.811c0-15.343-12.484-27.827-27.827-27.827h-519.419c-15.343 0-27.826 12.484-27.826 27.827v426.667c0 158.548 128.988 287.537 287.537 287.537s287.535-128.988 287.535-287.537v-426.667zM855.189 763.362c-15.343 0-27.827 12.483-27.827 27.827s12.484 27.826 27.827 27.826c15.343 0 27.827-12.483 27.827-27.826s-12.484-27.827-27.827-27.827zM612.173 633.531c-27.537 77.657-101.338 129.833-183.65 129.833-82.316 0-156.118-52.175-183.65-129.833-5.135-14.485 2.445-30.39 16.93-35.525 14.488-5.138 30.39 2.444 35.525 16.927 19.673 55.495 72.396 92.778 131.194 92.778s111.522-37.285 131.196-92.778c4.049-11.41 14.775-18.537 26.227-18.533 3.085 0 6.225 0.518 9.301 1.606 14.481 5.137 22.063 21.040 16.926 35.525zM428.514 596.402c15.369 0 27.827 12.458 27.827 27.826s-12.459 27.827-27.827 27.827c-15.366 0-27.825-12.458-27.825-27.827s12.458-27.826 27.825-27.826zM567.646 188.297h-278.261c-15.366 0-27.827-12.459-27.827-27.827s12.459-27.827 27.827-27.827h278.261c15.364 0 27.827 12.459 27.827 27.827s-12.459 27.827-27.827 27.827z" />
<glyph unicode="&#xe909;" glyph-name="slots" d="M512 874.667c-235.96 0-426.667-190.65-426.667-426.667 0-235.959 190.65-426.667 426.667-426.667 235.959 0 426.667 190.647 426.667 426.667 0 235.962-190.647 426.667-426.667 426.667zM512 71.334c-207.695 0-376.666 168.969-376.666 376.666 0 207.695 168.972 376.666 376.666 376.666 207.697 0 376.666-168.972 376.666-376.666 0-207.697-168.969-376.666-376.666-376.666zM698.189 693.837c-41.28-27.207-81.024-27.257-122.321-0.035-4.484 2.988-45.065 29.198-88.866 29.198h-175.002c-13.807 0-25-11.193-25-25v-199.999c0-13.807 11.194-25.003 25-25.003h75c9.47 0 18.125 5.35 22.362 13.82l18.090 36.181h95.394c-19.895-39.842-41.775-74.219-61.594-105.353-46.4-72.9-86.476-135.855-74.001-223.185 1.76-12.314 12.307-21.461 24.748-21.461h200.002c15.189 0 26.897 13.466 24.747 28.535-14.682 102.771 31.855 181.726 98.231 336.616 1.331 3.112 2.022 6.462 2.022 9.848v125c-0.004 19.745-22.101 31.852-38.814 20.837zM687.002 553.14c-60.975-141.714-108.117-226.646-102.566-330.138h-149.444c-1.122 58.509 28.736 105.421 68.442 167.799 26.389 41.463 56.307 88.461 81.545 147.352 7.057 16.462-5.030 34.847-22.976 34.847h-150.001c-9.47 0-18.125-5.35-22.362-13.82l-18.090-36.18h-34.548v150.001h150.001c24.26 0 52.39-15.040 61.133-20.802 50.551-33.702 96.294-35.135 138.867-19.383v-79.675z" />
<glyph unicode="&#xe90a;" glyph-name="sports" d="M849.199 766.833h-674.397c-49.324 0-89.469-40.145-89.469-89.481v-458.587c0-49.34 40.144-89.468 89.469-89.468h674.397c49.335 0 89.468 40.141 89.468 89.468v458.587c0 49.337-40.145 89.481-89.468 89.481zM894.605 335.219h-45.393c-25.037 0-45.41 20.361-45.41 45.406v134.878c0 25.033 20.373 45.408 45.41 45.408h45.393v-225.691zM489.963 337.382c-51.703 10.278-90.803 56-90.803 110.677 0 54.673 39.099 100.397 90.803 110.672v-221.35zM534.037 558.745c51.703-10.275 90.803-55.999 90.803-110.672 0-54.677-39.1-100.399-90.803-110.677v221.35zM129.407 560.911h45.395c25.034 0 45.408-20.362 45.408-45.408v-134.878c0-25.033-20.374-45.406-45.408-45.406h-45.395v225.691zM129.407 218.765v72.38h45.395c49.337 0 89.481 40.145 89.481 89.481v134.878c0 49.336-40.145 89.481-89.481 89.481h-45.395v72.381c0 25.034 20.362 45.408 45.395 45.408h315.161v-119.337c-76.12-10.741-134.876-76.323-134.876-155.363 0-79.044 58.756-144.614 134.876-155.366v-119.339h-315.161c-25.033 0-45.395 20.365-45.395 45.397zM849.199 173.367h-315.162v119.339c76.122 10.739 134.878 76.322 134.878 155.366 0 79.040-58.756 144.608-134.878 155.363v119.325h315.162c25.033 0 45.393-20.362 45.393-45.408v-72.381h-45.393c-49.34 0-89.481-40.144-89.481-89.481v-134.878c0-49.335 40.141-89.481 89.481-89.481h45.393v-72.38c0-25.033-20.361-45.385-45.393-45.385z" />
<glyph unicode="&#xe90b;" glyph-name="copy" d="M682.667 358.4c0-17.067-12.8-25.6-21.333-25.6h-209.067c-17.067 0-25.6 12.8-25.6 29.867s12.8 25.6 21.333 25.6h209.067c12.8 0 25.6-8.533 25.6-29.867zM896 648.533v-349.867c0-81.067-55.467-153.6-132.267-174.933-25.6-59.733-85.333-102.4-153.6-102.4h-307.2c-98.133 0-174.933 81.067-174.933 179.2v405.333c0 72.533 55.467 140.8 128 162.133 25.6 64 89.6 106.667 162.133 106.667h256c8.533 0 17.067-4.267 17.067-8.533l196.267-200.533c4.267-4.267 8.533-12.8 8.533-17.067zM691.2 733.867c0-38.4 29.867-68.267 68.267-68.267h46.933l-115.2 123.733v-55.467zM695.467 119.467h-277.333c-98.133 0-174.933 81.067-174.933 179.2v401.067c-34.133-17.067-59.733-55.467-59.733-93.867v-405.333c0-68.267 55.467-119.467 119.467-119.467h307.2c34.133-4.267 64 12.8 85.333 38.4zM840.533 614.4h-76.8c-68.267 0-123.733 51.2-128 119.467v4.267l-4.267 81.067h-213.333c-64 0-119.467-55.467-119.467-115.2v-405.333c0-68.267 51.2-119.467 119.467-119.467h307.2c59.733 0 115.2 55.467 115.2 119.467v315.733zM448 516.267h132.267c12.8 4.267 21.333 17.067 21.333 29.867 0 17.067-12.8 29.867-29.867 29.867h-132.267c-8.533 0-21.333-17.067-21.333-29.867 0-17.067 17.067-29.867 29.867-29.867z" />
<glyph unicode="&#xe90c;" glyph-name="check" d="M947.575 755.43c16.623-16.703 16.559-43.718-0.145-60.34l-557.355-554.666c-16.647-16.567-43.553-16.567-60.198 0.004l-253.312 252.16c-16.701 16.623-16.762 43.639-0.138 60.339s43.639 16.759 60.34 0.137l223.215-222.199 527.253 524.711c16.704 16.622 43.716 16.557 60.339-0.145z" />
<glyph unicode="&#xe90d;" glyph-name="legal" d="M420.594 204.194c0-8.085-3.211-15.838-8.926-21.551-5.715-5.717-13.467-8.926-21.55-8.926h-91.428c-8.083 0-15.835 3.209-21.55 8.926-5.715 5.713-8.926 13.466-8.926 21.551 0 8.081 3.211 15.834 8.926 21.547 5.715 5.717 13.467 8.926 21.55 8.926h91.428c8.083 0 15.834-3.209 21.55-8.926 5.715-5.713 8.926-13.466 8.926-21.547zM298.69 508.954h304.762c8.081 0 15.834 3.213 21.551 8.926 5.713 5.717 8.926 13.466 8.926 21.55 0 8.083-3.213 15.834-8.926 21.55-5.717 5.716-13.47 8.926-21.551 8.926h-304.762c-8.083 0-15.835-3.211-21.55-8.926s-8.926-13.467-8.926-21.55c0-8.084 3.211-15.833 8.926-21.55 5.715-5.713 13.467-8.926 21.55-8.926zM298.69 661.334h304.762c8.081 0 15.834 3.211 21.551 8.926 5.713 5.716 8.926 13.467 8.926 21.55s-3.213 15.834-8.926 21.55c-5.717 5.716-13.47 8.926-21.551 8.926h-304.762c-8.083 0-15.835-3.211-21.55-8.926s-8.926-13.467-8.926-21.55c0-8.083 3.211-15.834 8.926-21.55s13.467-8.926 21.55-8.926zM908.211 387.051v-106.974c-0.162-55.275-17.246-109.175-48.956-154.449-31.71-45.278-76.523-79.757-128.414-98.807-5.005-1.771-10.24-2.795-15.543-3.046-6.677-1.673-13.538-2.492-20.42-2.436h-487.616c-24.248 0-47.503 9.63-64.649 26.778-17.146 17.143-26.779 40.401-26.779 64.649v670.475c0 24.248 9.633 47.503 26.779 64.649s40.401 26.779 64.649 26.779h487.616c24.252 0 47.505-9.632 64.653-26.779 17.143-17.146 26.778-40.401 26.778-64.649v-330.362l101.79-37.18c5.888-2.129 10.982-6.025 14.579-11.149 3.601-5.124 5.534-11.234 5.534-17.498zM207.261 82.287h392.534c-27.507 25.114-49.51 55.654-64.619 89.698s-22.989 70.848-23.155 108.092v76.497h-213.331c-8.083 0-15.835 3.209-21.55 8.926-5.715 5.713-8.926 13.466-8.926 21.551 0 8.081 3.211 15.834 8.926 21.547 5.715 5.717 13.467 8.926 21.55 8.926h238.321l162.743 59.127c6.699 2.419 14.029 2.419 20.723 0l4.877-1.83v308.418c0 8.083-3.209 15.834-8.926 21.55-5.713 5.716-13.466 8.926-21.551 8.926h-487.616c-8.083 0-15.834-3.211-21.55-8.926s-8.926-13.467-8.926-21.55v-670.475c0-8.081 3.211-15.834 8.926-21.551 5.715-5.713 13.467-8.926 21.55-8.926zM847.262 365.717l-136.23 49.37-138.057-49.37v-85.641c0.068-42.769 13.257-84.489 37.781-119.531 24.521-35.038 59.2-61.717 99.362-76.429 40.158 14.711 74.837 41.391 99.362 76.429 24.525 35.042 37.709 76.762 37.781 119.531v85.641zM694.878 247.164l-39.313 39.62c-5.739 5.739-13.521 8.96-21.636 8.96-8.119 0-15.902-3.221-21.641-8.96s-8.96-13.525-8.96-21.641c0-8.115 3.221-15.898 8.96-21.636l60.954-60.954c2.833-2.854 6.204-5.124 9.916-6.669 3.716-1.549 7.697-2.347 11.721-2.347s8.009 0.798 11.721 2.347c3.716 1.545 7.087 3.814 9.92 6.669l91.426 91.43c5.739 5.739 8.964 13.521 8.964 21.636s-3.226 15.898-8.964 21.641c-5.739 5.739-13.521 8.96-21.636 8.96s-15.902-3.221-21.641-8.96l-69.79-70.097z" />
<glyph unicode="&#xe90e;" glyph-name="menu" d="M143.515 746.667h736.971c32.132 0 58.18-23.597 58.18-52.706s-26.048-52.706-58.18-52.706h-736.971c-32.134 0-58.182 23.597-58.182 52.706s26.048 52.706 58.182 52.706zM143.515 500.706h736.971c32.132 0 58.18-23.599 58.18-52.706s-26.048-52.706-58.18-52.706h-736.971c-32.134 0-58.182 23.599-58.182 52.706s26.048 52.706 58.182 52.706zM143.515 254.746h736.971c32.132 0 58.18-23.599 58.18-52.706s-26.048-52.706-58.18-52.706h-736.971c-32.134 0-58.182 23.599-58.182 52.706s26.048 52.706 58.182 52.706z" />
<glyph unicode="&#xe90f;" glyph-name="rotate" d="M862.4 832c-19.2 0-38.4-14.4-38.4-38.4v-124.8c-72 100.8-187.2 163.2-312 163.2-196.8 0-360-148.8-384-345.6 0-19.2 14.4-38.4 33.6-38.4h4.8c19.2 0 33.6 14.4 33.6 33.6 19.2 158.4 153.6 278.4 312 278.4 105.6 0 206.4-57.6 264-144h-129.6c-19.2 0-38.4-14.4-38.4-38.4s14.4-33.6 38.4-33.6h216c19.2 0 33.6 14.4 33.6 33.6v216c0 24-14.4 38.4-33.6 38.4zM862.4 448c-19.2 0-38.4-14.4-38.4-33.6-14.4-158.4-148.8-278.4-312-278.4-105.601 0-206.401 57.6-264 144h129.6c19.2 0 38.4 14.4 38.4 38.4s-14.4 33.6-33.6 33.6h-216c-24 0-38.4-14.4-38.4-38.4v-216c0-19.2 14.4-33.6 38.4-33.6s38.4 14.4 38.4 38.4v124.8c67.2-100.8 182.4-163.2 307.2-163.2 196.8 0 360 148.8 384 345.6 0 19.2-14.4 38.4-33.6 38.4z" />
<glyph unicode="&#xe910;" glyph-name="security" d="M512 21.333c-50.65 0-100.186 11.925-147.248 35.439-43.937 21.948-83.699 52.949-118.186 92.109-68.574 77.862-107.899 179.601-107.899 279.113v261.658c0 13.137 7.712 25.050 19.7 30.412l338.333 151.686c8.64 3.875 18.513 3.887 27.162 0.050l341.662-151.661c12.049-5.35 19.81-17.287 19.81-30.462v-261.661c0-73.361-20.873-147.26-60.348-213.696-9.399-15.825-29.862-21.039-45.687-11.627-15.825 9.399-21.039 29.862-11.627 45.687 33.361 56.137 50.987 118.251 50.987 179.635v239.999l-308.258 136.836-305.059-136.749v-240.074c0-177.933 146.161-339.994 306.659-339.994 56.725 0 112.188 18.534 160.384 53.611 14.891 10.837 35.738 7.548 46.562-7.339 10.837-14.886 7.552-35.738-7.334-46.562-59.674-43.422-128.7-66.411-199.612-66.411zM651.998 253.030h-279.996c-18.412 0-33.337 14.925-33.337 33.34v166.66c0 42.56 32.062 77.76 73.299 82.735v27.262c0 54.212 44.864 98.312 99.998 98.312 55.138 0 100.002-44.1 100.002-98.312v-27.262c41.259-4.937 73.361-40.162 73.361-82.735v-166.66c0-18.415-14.912-33.34-33.327-33.34zM405.339 319.693h213.336v133.338c0 9.186-7.475 16.661-16.661 16.661h-180c-9.187 0-16.663-7.475-16.663-16.661l-0.012-133.338zM478.639 536.353h66.662v26.662c0 17.45-14.95 31.637-33.34 31.637-18.385 0-33.335-14.199-33.335-31.637l0.013-26.662z" />
<glyph unicode="&#xe911;" glyph-name="about" d="M521.651 438.643c42.475 33.685 65.643 86.080 65.643 138.48 0 104.795-84.945 187.134-193.062 187.134-108.115 0-193.062-82.339-193.062-187.134 0-52.4 23.168-104.794 65.641-138.48-108.114-48.653-181.478-157.193-181.478-273.216 0-22.455 15.445-37.427 38.612-37.427s38.612 14.972 38.612 37.427c0 123.507 104.253 224.563 231.674 224.563 127.419 0 231.675-101.056 231.675-224.563 0-22.455 15.445-37.427 38.613-37.427 23.164 0 38.609 14.972 38.609 37.427 0 116.023-69.5 224.563-181.478 273.216zM394.232 464.841c-65.641 0-115.837 48.657-115.837 112.282s50.196 112.28 115.837 112.28c65.642 0 115.839-48.655 115.839-112.28s-50.197-112.282-115.839-112.282zM772.634 453.615c69.504 78.596 61.781 194.619-15.445 265.73-34.752 29.941-81.084 48.655-127.42 48.655-23.168 0-38.613-14.971-38.613-37.427s15.445-37.427 38.613-37.427c65.638 0 115.836-48.655 115.836-112.28 0-41.17-23.168-78.598-57.92-97.312-11.58-7.484-19.302-18.714-19.302-29.939 0-11.23 7.723-26.202 19.302-33.685l15.445-11.23 3.861-3.742c96.533-44.911 154.449-138.479 154.449-239.531 0-22.455 15.445-37.427 38.613-37.427s38.613 14.972 38.613 37.427c-3.861 116.023-65.643 224.563-166.033 288.188z" />
<glyph unicode="&#xe912;" glyph-name="trans-history" d="M938.667 448c0-113.161-44.954-221.683-124.966-301.7-80.017-80.013-188.54-124.966-301.7-124.966-113.159 0-221.683 44.954-301.699 124.966-80.015 80.017-124.968 188.54-124.968 301.7 0 8.081 3.211 15.834 8.926 21.551 5.715 5.713 13.467 8.926 21.55 8.926s15.834-3.213 21.55-8.926c5.716-5.717 8.926-13.47 8.926-21.551-0.122-81.617 27.020-160.934 77.119-225.37 50.098-64.431 120.282-110.285 199.412-130.278 79.131-19.998 162.672-12.988 237.364 19.908 74.692 32.9 136.256 89.805 174.921 161.681 38.669 71.876 52.215 154.611 38.498 235.068-13.717 80.454-53.914 154.024-114.21 209.030s-137.237 88.296-218.611 94.587c-81.374 6.291-162.519-14.779-230.553-59.864h18.918c8.083 0 15.834-3.211 21.55-8.926s8.926-13.467 8.926-21.55c0-8.083-3.211-15.834-8.926-21.55s-13.467-8.926-21.55-8.926h-91.429c-4.003-0.002-7.967 0.785-11.665 2.315s-7.059 3.776-9.89 6.606c-2.831 2.831-5.075 6.191-6.606 9.89s-2.318 7.663-2.316 11.665v91.428c0 8.083 3.211 15.835 8.926 21.55s13.467 8.926 21.55 8.926c8.083 0 15.834-3.211 21.55-8.926s8.926-13.467 8.926-21.55v-15.662c63.963 44.581 138.921 70.779 216.729 75.748 77.807 4.968 155.49-11.483 224.602-47.567 69.116-36.084 127.014-90.42 167.415-157.103 40.397-66.683 61.747-143.165 61.73-221.129zM516.326 573.352c12.378 0 22.144-4.066 28.983-12.376 6.839-8.133 10.257-20.863 10.257-38.011h77.828l0.491 1.237c0.486 31.293-7.654 56.752-24.589 76.73-16.768 19.802-40.051 31.825-69.359 36.068v54.808h-37.286v-54.101c-31.1-2.652-55.851-13.437-74.086-32.178-18.234-18.741-27.352-42.609-27.352-71.958 0-32.533 8.792-57.284 26.375-74.257 17.587-17.148 45.103-32.883 82.714-47.206 16.934-7.603 28.493-15.027 34.517-22.101 6.025-7.070 9.118-17.502 9.118-31.117 0-11.844-2.927-21.214-8.789-28.288-5.862-7.070-15.305-10.607-28.493-10.607-14.818 0-26.543 4.241-35.332 12.553-8.794 8.311-13.026 22.455-13.026 42.078h-77.667l-0.489-1.591c-0.814-37.303 9.118-65.417 29.471-84.51 20.516-19.093 46.568-30.054 78.316-32.883v-51.452h37.611v51.452c30.447 3.004 54.221 13.611 71.804 31.821 17.425 18.035 26.214 42.082 26.214 71.962 0 32.354-9.118 57.634-27.191 76.198-18.236 18.389-45.427 33.946-81.737 46.677-17.421 9.015-29.141 16.973-34.842 23.693-5.7 6.716-8.631 15.91-8.631 27.226 0 12.199 2.607 21.747 7.979 29.172 5.047 7.426 14.332 10.961 27.191 10.961z" />
<glyph unicode="&#xe913;" glyph-name="bet-history" d="M512 742.971c23.714 0 43.051-12.431 43.051-27.717 0-9.239 11.494-16.63 25.724-16.63s25.719 7.391 25.719 16.63c0 27.549-28.275 50.73-67.132 58.289v16.63c0 9.407-11.857 17.134-26.449 17.134-14.596 0-26.453-7.727-26.453-17.134v-16.294c-39.586-7.223-68.772-30.74-68.772-58.625 0-33.596 42.323-60.976 94.496-60.976 0.363 0 0.363 0 0.183 0 22.071-1.176 42.867-12.934 42.867-27.549 0-15.286-19.337-27.717-43.051-27.717s-43.055 12.431-43.055 27.717c0 9.239-11.49 16.63-25.719 16.63s-25.722-7.391-25.722-16.63c0-27.885 29.186-51.402 68.772-58.625v-16.126c0-9.407 11.857-17.134 26.453-17.134 14.592 0 26.449 7.727 26.449 17.134v16.462c38.857 7.559 67.132 30.908 67.132 58.289 0 33.596-42.321 60.976-94.494 60.976-0.367 0-0.367 0-0.183 0-22.071 1.176-42.867 12.934-42.867 27.549 0 15.286 19.337 27.717 43.051 27.717zM512 874.667c-215.441 0-384-89.533-384-203.759v-445.816c0-114.227 168.741-203.759 384-203.759 215.441 0 384 89.532 384 203.759v445.816c0 114.225-168.559 203.759-384 203.759zM844.557 225.092c0-84.83-152.324-156.39-332.557-156.39-180.234 0-332.557 71.561-332.557 156.39v44.514c65.855-60.471 188.808-100.45 332.557-100.45s266.701 39.979 332.557 100.45v-44.514zM844.557 375.266c0-84.83-152.324-156.39-332.557-156.39-180.234 0-332.557 71.561-332.557 156.39v42.33c65.855-60.471 188.808-100.45 332.557-100.45s266.701 39.979 332.557 100.45v-42.33zM844.557 523.085c0-84.826-152.324-156.386-332.557-156.386-180.234 0-332.557 71.561-332.557 156.386v44.348c65.855-60.472 188.808-100.451 332.557-100.451s266.701 39.812 332.557 100.451v-44.348zM512 514.522c-180.234 0-332.557 71.557-332.557 156.387s152.323 156.388 332.557 156.388c180.233 0 332.557-71.559 332.557-156.388s-152.324-156.387-332.557-156.387z" />
<glyph unicode="&#xe914;" glyph-name="promotion-1" d="M860.553 433.835c-5.602 8.606-5.602 19.725 0 28.331l31.159 47.898c28.39 43.632 9.263 102.248-39.253 120.82l-53.367 20.433c-9.587 3.674-16.128 12.668-16.653 22.923l-2.944 57.067c-2.679 51.973-52.604 88.169-102.775 74.669l-55.181-14.836c-9.916-2.663-20.493 0.772-26.944 8.756l-35.925 44.442c-32.721 40.473-94.374 40.408-127.040 0l-35.925-44.443c-6.453-7.987-17.028-11.418-26.945-8.757l-55.185 14.836c-50.272 13.52-100.105-22.796-102.778-74.669l-2.942-57.067c-0.53-10.253-7.065-19.249-16.653-22.921l-53.363-20.433c-48.618-18.61-67.591-77.274-39.26-120.82l31.165-47.898c5.598-8.606 5.598-19.725 0-28.331l-31.16-47.898c-28.39-43.635-9.257-102.251 39.257-120.819l53.366-20.433c9.588-3.674 16.125-12.668 16.653-22.925l2.941-57.067c2.68-51.981 52.613-88.162 102.778-74.667l55.181 14.835c9.918 2.662 20.492-0.772 26.947-8.755l35.926-44.442c32.725-40.482 94.379-40.401 127.036 0l35.925 44.442c6.451 7.983 17.037 11.413 26.944 8.755l55.185-14.835c50.257-13.525 100.105 22.788 102.78 74.667l2.94 57.067c0.529 10.253 7.066 19.251 16.653 22.925l53.363 20.433c48.614 18.607 67.588 77.269 39.262 120.819l-31.168 47.898zM832.542 317.137l-53.367-20.433c-30.148-11.546-50.701-39.834-52.365-72.073l-2.94-57.067c-0.853-16.533-16.725-28.036-32.687-23.748l-55.185 14.835c-31.172 8.388-64.435-2.423-84.723-27.529l-35.925-44.437c-10.406-12.877-30.012-12.851-40.401 0l-35.921 44.437c-15.73 19.46-39.25 30.332-63.554 30.332-7.048 0-14.165-0.913-21.176-2.803l-55.185-14.835c-15.993-4.292-31.833 7.249-32.687 23.748l-2.942 57.067c-1.661 32.239-22.217 60.531-52.363 72.073l-53.366 20.433c-15.462 5.922-21.493 24.572-12.483 38.421l31.163 47.898c17.605 27.059 17.605 62.029 0 89.088l-31.163 47.897c-9.030 13.877-2.947 32.515 12.485 38.423l53.366 20.433c30.148 11.543 50.702 39.833 52.363 72.071l2.942 57.066c0.852 16.535 16.727 28.035 32.687 23.748l55.185-14.836c31.175-8.385 64.433 2.425 84.724 27.53l35.925 44.441c10.411 12.873 30.016 12.847 40.401 0l35.925-44.443c20.297-25.105 53.551-35.915 84.727-27.528l55.185 14.836c15.991 4.295 31.834-7.247 32.687-23.748l2.935-57.066c1.664-32.238 22.217-60.53 52.365-72.071l53.367-20.435c15.462-5.917 21.491-24.573 12.484-38.422l-31.164-47.897c-17.604-27.059-17.604-62.029 0-89.088l31.164-47.893c9.028-13.884 2.948-32.521-12.484-38.426zM634.253 589.866c-10.876 10.875-28.51 10.875-39.386 0l-259.944-259.942c-10.875-10.876-10.875-28.51 0.002-39.386 5.438-5.44 12.567-8.158 19.693-8.158s14.257 2.718 19.693 8.158l259.942 259.942c10.876 10.873 10.876 28.508 0 39.385zM382.516 597.95c-30.714 0-55.701-24.989-55.701-55.701s24.99-55.703 55.701-55.703c30.715 0 55.701 24.99 55.701 55.703 0.004 30.713-24.986 55.701-55.701 55.701zM586.705 393.715c-30.716 0-55.701-24.99-55.701-55.701 0-30.716 24.986-55.701 55.701-55.701 30.711 0 55.701 24.986 55.701 55.701 0 30.711-24.986 55.701-55.701 55.701z" />
<glyph unicode="&#xe915;" glyph-name="bank-1" d="M877.713 508.966c33.617 0 60.954 27.337 60.954 60.953v42.759c0 22.461-12.284 43.034-32.090 53.67l-380.13 204.684c-8.99 4.846-19.87 4.846-28.864 0l-380.158-204.684c-19.779-10.636-32.091-31.209-32.091-53.67v-42.759c0-33.616 27.337-60.953 60.952-60.953h30.476v-304.772h-30.476c-33.615 0-60.952-27.337-60.952-60.954v-60.954c0-33.617 27.337-60.954 60.952-60.954h731.427c33.617 0 60.954 27.337 60.954 60.954v60.954c0 33.617-27.337 60.954-60.954 60.954h-30.477v304.772h30.477zM146.286 612.679l365.714 196.912 365.713-196.912v-42.759h-731.427v42.759zM542.477 204.194v304.772h91.426v-304.772h-91.426zM390.095 204.194v304.772h91.428v-304.772h-91.428zM237.714 508.966h91.429v-304.772h-91.429v304.772zM877.743 82.287h-731.457v60.954h731.427l0.030-60.954zM786.317 204.194h-91.43v304.772h91.43v-304.772z" />
<glyph unicode="&#xe916;" glyph-name="withdraw" d="M528.939 698.88l91.43-60.982c13.99-9.326 17.766-28.251 8.444-42.239-9.327-13.988-28.254-17.783-42.274-8.457l-44.036 29.348v-156.386c0-16.823-13.653-30.447-30.477-30.447s-30.477 13.623-30.477 30.447v156.386l-44.036-29.348c-14.020-9.326-32.945-5.531-42.272 8.457s-5.546 32.913 8.442 42.239l91.43 60.982c4.996 3.291 10.85 5.12 16.913 5.12 6.067 0 11.917-1.829 16.913-5.12zM847.236 356.595h-60.949v426.644c0 50.513-40.93 91.427-91.43 91.427h-365.713c-50.499 0-91.429-40.913-91.429-91.427v-426.644h-60.952c-50.499 0-91.429-40.96-91.429-91.426v-152.41c0-50.466 40.93-91.426 91.429-91.426h670.474c50.5 0 91.43 40.96 91.43 91.426v152.41c0 50.466-40.93 91.426-91.43 91.426zM176.762 295.616h60.952v-60.937h-30.476c-16.823 0-30.476-13.67-30.476-30.494 0-16.819 13.653-30.443 30.476-30.443h609.526c16.819 0 30.473 13.623 30.473 30.443 0 16.823-13.653 30.494-30.473 30.494h-30.477v60.937h60.949c16.823 0 30.477-13.623 30.477-30.447v-152.41c0-16.823-13.653-30.443-30.477-30.443h-670.474c-16.823 0-30.476 13.619-30.476 30.443v152.41c0 16.823 13.653 30.447 30.476 30.447zM725.333 783.24v-548.56h-426.667v548.56c0 16.823 13.653 30.491 30.476 30.491h365.713c16.823 0 30.477-13.668 30.477-30.491z" />
<glyph unicode="&#xe917;" glyph-name="deposit-1" d="M237.714 539.404h-60.952c-50.499 0-91.429 40.96-91.429 91.427v152.409c0 50.468 40.93 91.427 91.429 91.427h670.474c50.5 0 91.43-40.96 91.43-91.427v-152.409c0-50.468-40.93-91.427-91.43-91.427h-60.949v-426.644c0-50.513-40.93-91.426-91.43-91.426h-365.714c-50.499 0-91.428 40.913-91.428 91.426v426.644zM786.287 600.386h60.949c16.823 0 30.477 13.623 30.477 30.445v152.409c0 16.823-13.653 30.445-30.477 30.445h-670.474c-16.823 0-30.476-13.623-30.476-30.445v-152.409c0-16.823 13.653-30.445 30.476-30.445h60.952v60.936h-30.476c-16.823 0-30.476 13.668-30.476 30.491s13.653 30.445 30.476 30.445h609.526c16.819 0 30.473-13.623 30.473-30.445s-13.653-30.491-30.473-30.491h-30.477v-60.936zM298.667 661.322v-548.562c0-16.823 13.653-30.49 30.476-30.49h365.714c16.823 0 30.477 13.666 30.477 30.49v548.562h-426.667zM528.913 595.266l91.43-60.982c13.986-9.326 17.766-28.249 8.439-42.239-9.323-13.986-28.25-17.783-42.27-8.457l-44.036 29.346v-156.386c0-16.819-13.653-30.443-30.477-30.443s-30.477 13.623-30.477 30.443v156.386l-44.036-29.346c-14.020-9.327-32.946-5.53-42.272 8.457-9.326 13.99-5.547 32.913 8.442 42.239l91.43 60.982c4.996 3.292 10.85 5.12 16.913 5.12s11.917-1.828 16.913-5.12z" />
<glyph unicode="&#xe918;" glyph-name="account" d="M813.7 323.034c-46.473 46.468-101.786 80.87-162.133 101.696 64.636 44.518 107.098 119.024 107.098 203.27 0 136.012-110.652 246.667-246.665 246.667s-246.667-110.655-246.667-246.667c0-84.247 42.465-158.752 107.103-203.27-60.35-20.826-115.663-55.228-162.135-101.696-80.587-80.589-124.969-187.733-124.969-301.7h66.667c0 198.507 161.495 360 360 360 198.507 0 360-161.493 360-360h66.667c0 113.967-44.382 221.111-124.966 301.7zM512 448c-99.252 0-180 80.747-180 180s80.748 180 180 180c99.251 0 180.002-80.747 180.002-180s-80.751-180-180.002-180z" />
<glyph unicode="&#xe919;" glyph-name="tong-quan" d="M572.954 387.046h-121.907c-16.166 0-31.668-6.421-43.098-17.852s-17.853-26.935-17.853-43.098v-243.81c0-16.166 6.422-31.671 17.853-43.102s26.932-17.852 43.098-17.852h121.907c16.166 0 31.667 6.421 43.098 17.852s17.852 26.935 17.852 43.102v243.81c0 16.162-6.421 31.667-17.852 43.098s-26.931 17.852-43.098 17.852zM451.046 82.287v243.81h121.907v-243.81h-121.907zM268.191 295.62h-121.905c-16.166 0-31.669-6.421-43.1-17.852-11.431-11.435-17.853-26.935-17.853-43.102v-152.38c0-16.166 6.422-31.671 17.853-43.102s26.934-17.852 43.1-17.852h121.905c16.166 0 31.669 6.421 43.1 17.852s17.853 26.935 17.853 43.102v152.38c0 16.166-6.422 31.667-17.853 43.102-11.431 11.43-26.934 17.852-43.1 17.852zM146.286 82.287v152.38h121.905v-152.38h-121.905zM877.713 539.429h-121.903c-16.166 0-31.671-6.424-43.102-17.854s-17.852-26.931-17.852-43.098v-396.19c0-16.166 6.421-31.671 17.852-43.102s26.935-17.852 43.102-17.852h121.903c16.166 0 31.671 6.421 43.102 17.852s17.852 26.935 17.852 43.102v396.19c0 16.166-6.421 31.667-17.852 43.098s-26.935 17.854-43.102 17.854zM755.81 82.287v396.19h121.903v-396.19h-121.903zM207.238 417.523c2.539 0.004 5.068 0.32 7.528 0.947 109.082 27.789 214.039 69.798 312.168 124.951 106.829 60.367 204.433 135.763 289.83 223.878v-75.489c0-8.083 3.209-15.835 8.926-21.55 5.713-5.716 13.466-8.926 21.547-8.926 8.085 0 15.838 3.211 21.551 8.926 5.717 5.715 8.926 13.467 8.926 21.55v152.381c0 8.083-3.209 15.835-8.926 21.55-5.713 5.716-13.466 8.926-21.551 8.926h-152.38c-8.081 0-15.834-3.211-21.551-8.926-5.713-5.715-8.926-13.467-8.926-21.55s3.213-15.834 8.926-21.55c5.717-5.716 13.47-8.926 21.551-8.926h81.553c-82.061-85.605-176.162-158.786-279.343-217.234-93.479-52.485-193.455-92.446-297.356-118.857-7.282-1.758-13.662-6.135-17.921-12.301-4.259-6.161-6.098-13.679-5.167-21.111 0.931-7.437 4.567-14.263 10.215-19.187s12.91-7.595 20.401-7.501z" />
<glyph unicode="&#xe91a;" glyph-name="maintance" d="M876.403 242.731l-213.389 213.393c-2.598 2.598-5.389 4.954-8.329 7.070l56.188 56.192c50.372-8.956 102.673 7.189 139.166 43.681 47.138 47.137 59.507 119.2 30.788 179.319-6.694 14.007-25.254 17.178-36.224 6.213-13.367-13.366-1.698-2.025-67.29-65.132h-29.67v29.667c63.108 65.591 51.767 53.925 65.131 67.289 10.982 10.978 7.782 29.535-6.212 36.219-60.113 28.724-132.181 16.35-179.315-30.785-36.493-36.492-52.642-88.793-43.682-139.165l-55.565-55.561-17.847 17.849c-8.789 8.789-23.040 8.789-31.829 0l-15.91-15.914-114.354 114.352v54.334c0 9.687-6.198 18.286-15.387 21.35l-143.222 47.741c-8.085 2.694-17.003 0.591-23.031-5.437l-31.826-31.826c-6.028-6.028-8.132-14.943-5.437-23.030l47.741-143.222c3.064-9.19 11.664-15.389 21.35-15.389h54.333l114.353-114.354-15.914-15.91c-8.783-8.785-8.788-23.040 0-31.829l17.851-17.847-55.561-55.561c-50.371 8.951-102.673-7.194-139.165-43.686-61.423-61.423-61.423-161.365 0-222.788 61.422-61.419 161.365-61.427 222.79 0 36.494 36.493 52.639 88.794 43.683 139.166l56.192 56.188c2.116-2.94 4.471-5.73 7.070-8.329l213.393-213.389c26.321-26.325 69.154-26.325 95.479 0 35.849 35.849 37.79 37.79 63.654 63.654 26.325 26.321 26.325 69.154 0 95.475zM624.107 623.582c5.683 5.68 7.906 13.959 5.833 21.722-10.347 38.744 0.815 80.406 29.137 108.728 25.583 25.582 61.436 36.833 96.017 31.766l-46.17-47.991c-4.036-4.193-6.289-9.785-6.289-15.603v-61.243c0-12.429 10.078-22.505 22.507-22.505h61.244c5.815 0 11.409 2.254 15.599 6.288l47.991 46.174c5.069-34.582-6.182-70.438-31.765-96.020-28.318-28.319-69.978-39.487-108.727-29.136-7.765 2.072-16.034-0.148-21.717-5.826l-79.799-79.799c-20.284 8.597-35.328 26.671-39.774 48.892-1.707 8.523-2.982 17.522-9.788 28.857l65.702 65.697zM277.814 650.359c-4.22 4.22-9.944 6.591-15.912 6.591h-47.434l-38.214 114.639 12.157 12.157 114.639-38.213v-47.434c0-5.968 2.372-11.692 6.592-15.914l120.942-120.943-31.825-31.825-120.945 120.942zM400.072 272.239c-5.682-5.679-7.902-13.961-5.83-21.722 10.348-38.746-0.816-80.405-29.136-108.727-43.875-43.874-115.264-43.874-159.136 0-43.874 43.874-43.874 115.264 0 159.134 28.32 28.322 69.984 39.492 108.728 29.137 7.761-2.074 16.040 0.149 21.72 5.828l65.703 65.702c11.232-6.746 20.076-8.030 28.859-9.783 22.221-4.446 40.294-19.494 48.887-39.778l-79.796-79.791zM844.578 179.081l-15.915-15.915-207.117 207.113c-8.785 8.789-23.036 8.789-31.825 0s-8.789-23.036 0-31.825l207.113-207.117-15.91-15.915c-8.777-8.777-23.053-8.772-31.829 0l-213.393 213.393c-5.653 5.658-6.076 11.115-7.625 18.859-8.939 44.685-43.588 79.334-88.273 88.273-7.727 1.545-13.195 1.963-18.855 7.625l-22.19 22.191 95.483 95.48 22.191-22.191c5.666-5.667 6.084-11.154 7.625-18.855 8.939-44.685 43.588-79.334 88.273-88.273 7.735-1.549 13.197-1.967 18.854-7.625l213.393-213.393c8.777-8.772 8.777-23.053 0-31.825zM333.224 269.107c-26.386 26.385-69.094 26.389-95.482 0-26.324-26.325-26.324-69.158 0-95.484 26.386-26.385 69.093-26.385 95.482 0 26.324 26.325 26.324 69.158 0 95.484zM301.395 205.453c-8.796-8.794-23.030-8.798-31.826 0-8.774 8.772-8.774 23.053 0 31.825 8.793 8.794 23.030 8.794 31.826 0 8.777-8.777 8.777-23.053 0-31.825z" />
<glyph unicode="&#xe91b;" glyph-name="close-circle" d="M512 874.667c-235.273 0-426.667-191.393-426.667-426.667s191.393-426.667 426.667-426.667c235.273 0 426.667 191.394 426.667 426.667s-191.394 426.667-426.667 426.667zM669.124 341.158c13.897-13.905 13.897-36.373 0-50.283-6.933-6.933-16.038-10.415-25.143-10.415s-18.206 3.482-25.139 10.415l-106.842 106.85-106.842-106.85c-6.934-6.933-16.035-10.415-25.137-10.415-9.108 0-18.21 3.482-25.143 10.415-13.9 13.909-13.9 36.378 0 50.283l106.848 106.842-106.848 106.842c-13.9 13.906-13.9 36.374 0 50.28 13.906 13.9 36.374 13.9 50.28 0l106.842-106.848 106.842 106.848c13.905 13.9 36.373 13.9 50.283 0 13.897-13.906 13.897-36.374 0-50.28l-106.85-106.842 106.85-106.842z" />
<glyph unicode="&#xe91c;" glyph-name="clock" d="M664.047 372.612l-118.98 89.233v181.772c0 18.277-14.775 33.050-33.050 33.050-18.278 0-33.050-14.773-33.050-33.050v-198.296c0-10.411 4.89-20.228 13.218-26.441l132.198-99.149c5.948-4.463 12.89-6.609 19.797-6.609 10.078 0 19.994 4.527 26.47 13.252 10.978 14.579 8 35.298-6.605 46.238zM512 874.667c-235.279 0-426.667-191.388-426.667-426.667 0-235.277 191.388-426.667 426.667-426.667 235.277 0 426.667 191.39 426.667 426.667 0 235.279-191.39 426.667-426.667 426.667zM512 87.433c-198.792 0-360.568 161.775-360.568 360.567s161.777 360.568 360.568 360.568c198.827 0 360.567-161.777 360.567-360.568s-161.775-360.567-360.567-360.567z" />
<glyph unicode="&#xe91d;" glyph-name="qa" d="M764.527 297.527c4.877-12.919-1.643-27.345-14.562-32.218-12.919-4.877-27.341 1.643-32.218 14.562l-9.749 25.835h-68.634l-9.865-25.907c-4.915-12.902-19.358-19.379-32.26-14.464s-19.379 19.358-14.468 32.26l64.435 169.156c9.775 23.876 43.601 23.945 53.431 0.043l0.265-0.678 63.625-168.589zM658.406 355.708h30.72l-15.287 40.512-15.433-40.512zM425.452 472.542c-9.763-9.762-25.592-9.762-35.355 0l-9.206 9.207c-17.127-10.906-37.46-17.225-59.268-17.225-61.025 0-110.496 49.468-110.496 110.496 0 61.026 49.47 110.496 110.496 110.496 61.024 0 110.497-49.469 110.497-110.496 0-21.106-5.919-40.83-16.186-57.602l9.518-9.519c9.761-9.762 9.761-25.591 0-35.358zM343.885 518.754l-8.491 8.491c-9.763 9.764-9.763 25.593 0 35.357s25.592 9.763 35.355 0l7.878-7.878c2.26 6.345 3.49 13.178 3.49 20.298 0 33.411-27.085 60.496-60.495 60.496s-60.496-27.084-60.496-60.496 27.084-60.495 60.496-60.495c7.861 0 15.372 1.502 22.263 4.228zM769.463 90.914c-4.723-6.298-12.134-10.001-20.002-10.001s-15.279 3.703-19.998 10.001l-42.5 56.666h-189.167c-41.31 0-75.002 33.69-75.002 74.999v126.669h-114.166l-42.5-56.666c-4.721-6.298-12.131-10.001-20-10.001s-15.279 3.703-20 10.001l-42.5 56.666h-37.502c-41.307 0-75.001 33.69-75.001 74.999v301.669c0 41.307 33.693 75 75.001 75h351.671c41.31 0 74.999-33.693 74.999-75v-126.668h276.672c41.306 0 74.999-33.693 74.999-74.999v-301.67c0-41.31-33.694-74.999-74.999-74.999h-37.504l-42.5-56.666zM572.796 549.248v-125.001c0-41.31-33.69-74.999-74.999-74.999h-25.003v-126.669c0-13.692 11.307-25.003 25.003-25.003h201.664c7.872 0 15.279-3.703 20.002-9.997l29.999-40 30.003 40c4.719 6.293 12.13 9.997 19.998 9.997h50.005c13.692 0 24.998 11.311 24.998 25.003v301.67c0 13.691-11.307 24.998-24.998 24.998h-276.672zM216.128 389.248l30.001-40 30 40c4.721 6.293 12.131 9.997 20 9.997h201.668c13.692 0 25.003 11.311 25.003 25.003v301.669c0 13.693-11.311 25-25.003 25h-351.671c-13.693 0-25-11.307-25-25v-301.669c0-13.692 11.307-25.003 25-25.003h50.002c7.869 0 15.279-3.703 20-9.997z" />
<glyph unicode="&#xe91e;" glyph-name="calander" d="M583.663 491.337c18.411 0 33.335 14.921 33.335 33.331s-14.925 33.334-33.335 33.334c-18.406 0-33.331-14.924-33.331-33.334s14.925-33.331 33.331-33.331zM583.663 346.334c18.411 0 33.335 14.925 33.335 33.335s-14.925 33.331-33.335 33.331c-18.406 0-33.331-14.921-33.331-33.331s14.925-33.335 33.331-33.335zM728.661 491.337c18.411 0 33.335 14.921 33.335 33.331s-14.925 33.334-33.335 33.334c-18.406 0-33.331-14.924-33.331-33.334s14.925-33.331 33.331-33.331zM905.331 458.001c18.411 0 33.335 14.921 33.335 33.331v183.334c0 73.52-59.814 133.333-133.333 133.333h-43.332v33.333c0 18.41-14.925 33.333-33.335 33.333s-33.331-14.924-33.331-33.333v-33.333h-151.667v33.333c0 18.41-14.925 33.333-33.335 33.333s-33.331-14.924-33.331-33.333v-33.333h-150.001v33.333c0 18.41-14.923 33.333-33.333 33.333s-33.333-14.924-33.333-33.333v-33.333h-41.667c-73.52 0-133.333-59.814-133.333-133.333v-520c0-73.519 59.813-133.333 133.333-133.333h419.998c1.135 0 2.257 0.060 3.362 0.171 1.101-0.111 2.197-0.171 3.298-0.171 8.887 0 17.609 3.558 24.017 10.21l260.002 270.003c9.271 9.63 11.895 23.868 6.665 36.169-5.235 12.297-17.31 20.284-30.677 20.284h-160c-73.519 0-133.333-59.81-133.333-133.333v-136.666h-393.331c-36.76 0-66.667 29.905-66.667 66.667v520c0 36.76 29.906 66.667 66.667 66.667h41.667v-33.333c0-18.41 14.923-33.333 33.333-33.333s33.333 14.924 33.333 33.333v33.333h150.001v-33.333c0-18.41 14.921-33.333 33.331-33.333s33.335 14.924 33.335 33.333v33.333h151.667v-33.333c0-18.41 14.921-33.333 33.331-33.333s33.335 14.924 33.335 33.333v33.333h43.332c36.757 0 66.667-29.907 66.667-66.667v-183.334c0-18.411 14.921-33.331 33.331-33.331zM678.665 224.666c0 36.762 29.909 66.667 66.667 66.667h81.626l-148.292-153.997v87.33zM293.666 491.337c18.409 0 33.333 14.921 33.333 33.331s-14.924 33.334-33.333 33.334c-18.409 0-33.333-14.924-33.333-33.334s14.924-33.331 33.333-33.331zM438.665 346.334c18.411 0 33.335 14.925 33.335 33.335s-14.925 33.331-33.335 33.331c-18.409 0-33.333-14.921-33.333-33.331s14.924-33.335 33.333-33.335zM293.666 201.331c18.409 0 33.333 14.925 33.333 33.335 0 18.406-14.924 33.331-33.333 33.331s-33.333-14.925-33.333-33.331c0-18.411 14.924-33.335 33.333-33.335zM293.666 346.334c18.409 0 33.333 14.925 33.333 33.335s-14.924 33.331-33.333 33.331c-18.409 0-33.333-14.921-33.333-33.331s14.924-33.335 33.333-33.335zM438.665 201.331c18.411 0 33.335 14.925 33.335 33.335 0 18.406-14.925 33.331-33.335 33.331s-33.333-14.925-33.333-33.331c0-18.411 14.924-33.335 33.333-33.335zM438.665 491.337c18.411 0 33.335 14.921 33.335 33.331s-14.925 33.334-33.335 33.334c-18.409 0-33.333-14.924-33.333-33.334s14.924-33.331 33.333-33.331z" />
<glyph unicode="&#xe91f;" glyph-name="arrow-down" d="M469.312 166.997l-225.835 225.835c-16.64 16.64-43.691 16.64-60.331 0s-16.64-43.691 0-60.331l298.667-298.667c16.64-16.683 43.691-16.683 60.331 0l298.667 298.667c16.64 16.64 16.64 43.691 0 60.331s-43.691 16.64-60.331 0l-225.835-225.835v665.003c0 23.552-19.115 42.667-42.667 42.667s-42.667-19.115-42.667-42.667v-665.003z" />
<glyph unicode="&#xe920;" glyph-name="arrow-left" d="M230.966 490.688l225.836 225.835c16.64 16.64 16.64 43.691 0 60.331s-43.692 16.64-60.332 0l-298.667-298.667c-16.683-16.64-16.683-43.691 0-60.331l298.667-298.667c16.64-16.64 43.692-16.64 60.332 0s16.64 43.691 0 60.331l-225.836 225.835h665.004c23.552 0 42.667 19.115 42.667 42.667s-19.115 42.667-42.667 42.667h-665.004z" />
<glyph unicode="&#xe921;" glyph-name="arrow-right-1" d="M793.003 490.688l-225.835 225.835c-16.64 16.64-16.64 43.691 0 60.331s43.691 16.64 60.331 0l298.667-298.667c16.683-16.64 16.683-43.691 0-60.331l-298.667-298.667c-16.64-16.64-43.691-16.64-60.331 0s-16.64 43.691 0 60.331l225.835 225.835h-665.003c-23.552 0-42.667 19.115-42.667 42.667s19.115 42.667 42.667 42.667h665.003z" />
<glyph unicode="&#xe922;" glyph-name="arrow-up" d="M469.312 728.992l-225.835-225.833c-16.64-16.64-43.691-16.64-60.331 0s-16.64 43.689 0 60.329l298.667 298.667c16.64 16.683 43.691 16.683 60.331 0l298.667-298.667c16.64-16.64 16.64-43.689 0-60.329s-43.691-16.64-60.331 0l-225.835 225.833v-665.001c0-23.552-19.115-42.667-42.667-42.667s-42.667 19.115-42.667 42.667v665.001z" />
<glyph unicode="&#xe923;" glyph-name="radio" d="M512 874.667c-235.52 0-426.667-191.147-426.667-426.667s191.147-426.667 426.667-426.667c235.52 0 426.667 191.147 426.667 426.667s-191.147 426.667-426.667 426.667zM512 106.667c-188.587 0-341.333 152.747-341.333 341.333s152.747 341.333 341.333 341.333c188.587 0 341.333-152.747 341.333-341.333s-152.747-341.333-341.333-341.333z" />
<glyph unicode="&#xe924;" glyph-name="deposit" d="M512 874.667c-235.264 0-426.667-191.403-426.667-426.667s191.403-426.667 426.667-426.667c235.264 0 426.667 191.403 426.667 426.667s-191.403 426.667-426.667 426.667zM725.333 448c0-23.565-19.102-42.667-42.667-42.667h-128v-128c0-23.565-19.102-42.667-42.667-42.667s-42.667 19.102-42.667 42.667v128h-128c-23.564 0-42.667 19.102-42.667 42.667s19.103 42.667 42.667 42.667h128v128c0 23.564 19.102 42.667 42.667 42.667s42.667-19.103 42.667-42.667v-128h128c23.565 0 42.667-19.102 42.667-42.667z" />
<glyph unicode="&#xe925;" glyph-name="logout" d="M482.534 874.667c48.653-0.001 95.433-18.74 130.633-52.326s56.111-79.438 58.394-128.035l0.213-8.875v-39.81c-0.004-8.108-3.085-15.913-8.619-21.837-5.538-5.925-13.116-9.527-21.205-10.080-8.085-0.553-16.085 1.986-22.374 7.103s-10.402 12.43-11.507 20.463l-0.299 4.352v39.81c0 31.944-12.207 62.68-34.121 85.92-21.918 23.24-51.887 37.227-83.772 39.099l-7.343 0.213h-208.008c-31.936-0.011-62.662-12.221-85.893-34.136s-37.212-51.876-39.084-83.758l-0.213-7.339v-474.901c-0.001-31.94 12.199-62.669 34.106-85.909 21.906-23.236 51.864-37.231 83.745-39.113l7.339-0.256h208.435c31.834 0 62.46 12.16 85.619 33.997s37.103 51.695 38.976 83.473l0.213 7.296v40.277c0.013 8.102 3.102 15.902 8.64 21.82 5.538 5.914 13.116 9.51 21.201 10.057s16.077-1.993 22.362-7.113c6.285-5.116 10.398-12.425 11.503-20.454l0.299-4.309v-40.277c-0.021-48.478-18.684-95.087-52.126-130.176-33.438-35.093-79.095-55.983-127.509-58.338l-9.178-0.256h-208.435c-48.651 0.004-95.433 18.743-130.631 52.326-35.199 33.587-56.11 79.437-58.391 128.034l-0.171 8.922v474.858c0 48.637 18.727 95.407 52.295 130.603s79.398 56.116 127.98 58.42l8.918 0.213 208.008 0.043zM928.764 471.061c3.145-2.991 5.645-6.596 7.347-10.59s2.573-8.294 2.556-12.634c-0.017-4.343-0.917-8.636-2.65-12.617s-4.258-7.569-7.424-10.539l-124.335-123.866c-5.734-5.683-13.402-8.994-21.466-9.263-8.068-0.269-15.936 2.522-22.037 7.808-6.097 5.291-9.971 12.685-10.846 20.71-0.875 8.021 1.318 16.081 6.131 22.558l3.072 3.541 69.978 69.764h-413.245c-8.105 0.013-15.902 3.102-21.818 8.64s-9.511 13.116-10.058 21.201c-0.547 8.085 1.994 16.077 7.111 22.362s12.427 10.398 20.456 11.503l4.31 0.299h413.33l-70.063 69.676c-5.444 5.41-8.759 12.596-9.348 20.249s1.596 15.261 6.148 21.438l3.115 3.584c5.41 5.432 12.587 8.743 20.228 9.331s15.245-1.588 21.419-6.131l3.584-3.115 124.506-123.912z" />
<glyph unicode="&#xe926;" glyph-name="radio-check" d="M512 874.667c-235.52 0-426.667-191.147-426.667-426.667s191.147-426.667 426.667-426.667c235.52 0 426.667 191.147 426.667 426.667s-191.147 426.667-426.667 426.667zM512 106.667c-188.587 0-341.333 152.747-341.333 341.333s152.747 341.333 341.333 341.333c188.587 0 341.333-152.747 341.333-341.333s-152.747-341.333-341.333-341.333zM512 704c-141.312 0-256-114.688-256-256s114.688-256 256-256c141.312 0 256 114.688 256 256s-114.688 256-256 256z" />
<glyph unicode="&#xe927;" glyph-name="eye-slash" d="M932.343 477.239c-34.351 74.504-84.668 140.541-147.383 193.434l107.81 107.81-50.313 50.35-117.094-116.984c-64.806 37.488-138.475 56.924-213.342 56.288-266.684 0-389.108-222.626-420.328-290.897-4.191-9.148-6.36-19.093-6.36-29.158 0-10.061 2.169-20.006 6.36-29.154 34.353-74.505 84.67-140.54 147.386-193.434l-107.775-107.81 50.278-50.278 117.091 116.983c64.809-37.487 138.48-56.926 213.347-56.286 266.679 0 389.103 222.622 420.322 290.893 4.186 9.139 6.349 19.072 6.349 29.124 0 10.048-2.163 19.981-6.349 29.12zM156.444 447.727c26.668 58.492 131.314 249.295 355.578 249.295 55.808 0.326 110.891-12.694 160.649-37.975l-62.758-62.759c-34.138 22.665-75.068 32.82-115.84 28.743s-78.88-22.134-107.855-51.109c-28.975-28.975-47.032-67.080-51.109-107.856-4.076-40.772 6.079-81.698 28.743-115.836l-73.924-73.924c-56.879 46.319-102.517 104.926-133.483 171.422zM618.692 448.119c0-28.292-11.238-55.424-31.245-75.43-20.002-20.006-47.138-31.245-75.426-31.245-15.842 0.064-31.462 3.712-45.692 10.671l141.696 141.696c6.959-14.229 10.607-29.854 10.667-45.692zM405.347 448.119c0 28.292 11.238 55.424 31.244 75.426 20.006 20.007 47.138 31.246 75.43 31.246 15.838-0.061 31.458-3.708 45.692-10.667l-141.699-141.696c-6.959 14.229-10.606 29.85-10.667 45.692zM512.021 199.215c-55.812-0.324-110.893 12.693-160.651 37.978l62.759 62.758c34.139-22.665 75.065-32.819 115.837-28.745 40.772 4.079 78.882 22.135 107.857 51.11 28.971 28.975 47.031 67.081 51.106 107.853 4.079 40.772-6.080 81.702-28.74 115.839l73.886 73.889c56.99-46.36 102.656-105.111 133.521-171.778-27.166-58.918-131.849-248.905-355.575-248.905z" />
<glyph unicode="&#xe928;" glyph-name="Image" d="M327.083 21.333h369.792c144.64 0 241.792 101.461 241.792 252.459v348.416c0 150.997-97.152 252.459-241.749 252.459h-369.835c-144.64 0-241.749-101.461-241.749-252.459v-348.416c0-150.997 97.152-252.459 241.749-252.459zM362.667 490.667c-28.283 0.021-55.401 11.268-75.4 31.266-19.999 20-31.244 47.118-31.267 75.401 0 58.795 47.787 106.667 106.624 106.667 28.272-0.045 55.372-11.299 75.358-31.294 19.989-19.995 31.232-47.101 31.266-75.372 0-58.795-47.829-106.667-106.667-106.667h0.085zM845.739 322.816c14.293-36.651 6.827-80.64-8.405-116.907-18.133-43.179-52.779-75.861-96.427-90.112-19.418-6.195-39.693-9.276-60.075-9.131h-359.552c-35.797 0-67.456 8.576-93.44 24.576-16.213 10.027-19.115 33.195-7.040 48.213 20.139 25.088 40.064 50.261 60.16 75.691 38.229 48.64 64 62.72 92.672 50.347 11.648-5.12 23.296-12.8 35.328-20.907 32-21.76 76.501-51.627 135.125-19.2 40.107 22.485 63.36 61.013 83.627 94.549l0.341 0.555 4.267 7.083c6.827 11.264 13.525 22.357 21.12 32.597 9.515 12.8 44.8 52.907 90.581 24.32 29.099-17.92 53.632-42.24 79.829-68.267 9.984-9.941 17.109-21.248 21.888-33.408z" />
<glyph unicode="&#xe929;" glyph-name="equals" d="M300.16 489.643c-13.739 0-24.533 3.597-32.384 10.795-7.851 7.851-11.776 18.645-11.776 32.384s3.925 24.206 11.776 31.403c7.851 7.851 18.645 11.776 32.384 11.776h406.272c14.391 0 25.186-3.925 32.384-11.776 7.851-7.197 11.776-17.664 11.776-31.403s-3.925-24.533-11.776-32.384c-7.198-7.198-17.993-10.795-32.384-10.795h-406.272zM300.16 294.357c-13.739 0-24.533 3.597-32.384 10.795-7.851 7.851-11.776 18.645-11.776 32.384s3.925 24.205 11.776 31.403c7.851 7.198 18.645 10.795 32.384 10.795h406.272c14.391 0 25.186-3.597 32.384-10.795 7.851-7.198 11.776-17.664 11.776-31.403 0-14.391-3.925-25.186-11.776-32.384-7.198-7.198-17.993-10.795-32.384-10.795h-406.272z" />
<glyph unicode="&#xe92a;" glyph-name="dong" d="M454.417 176.457c-30.91 0-58.196 7.761-81.86 23.283-23.181 15.522-41.292 37.555-54.331 66.095-13.039 29.043-19.559 63.091-19.559 102.153 0 39.556 6.52 73.357 19.559 101.397 13.039 28.54 31.15 50.573 54.331 66.096 23.664 15.523 50.95 23.284 81.86 23.284 29.457 0 55.053-7.511 76.787-22.533 22.212-15.024 37.184-34.8 44.911-59.338h-7.966v115.67h-106.492c-10.624 0-19.076 2.754-25.353 8.262-5.794 6.009-8.691 14.271-8.691 24.786s2.897 18.527 8.691 24.035c6.276 6.009 14.729 9.013 25.353 9.013h145.609l-39.117-41.31v62.341c0 11.517 3.861 21.031 11.588 28.542s18.837 11.267 33.323 11.267c14.49 0 25.596-3.756 33.323-11.267 8.213-7.511 12.318-17.025 12.318-28.542v-62.341l-39.842 41.31h73.165c11.106 0 19.315-3.004 24.627-9.013 5.798-5.508 8.695-13.52 8.695-24.035s-2.897-18.778-8.695-24.786c-5.312-5.508-13.521-8.262-24.627-8.262h-33.323v-366.537c0-15.522-3.866-27.541-11.593-36.053-7.727-8.013-18.833-12.015-33.323-12.015s-25.596 4.002-33.323 12.015c-7.727 8.512-11.593 20.531-11.593 36.053v57.084l7.245-22.532c-7.245-25.037-21.973-45.316-44.19-60.838-21.73-15.522-47.569-23.283-77.508-23.283zM479.77 247.808c17.869 0 33.566 4.506 47.087 13.521 13.521 9.011 23.906 22.281 31.151 39.808 7.727 18.027 11.588 40.307 11.588 66.85 0 40.055-8.209 69.85-24.627 89.378-16.422 20.032-38.153 30.046-65.199 30.046-17.869 0-33.566-4.51-47.087-13.521-13.522-8.512-24.147-21.781-31.874-39.808-7.244-17.527-10.866-39.556-10.866-66.095 0-39.561 8.21-69.602 24.63-90.133 16.421-20.032 38.151-30.046 65.197-30.046z" />
<glyph unicode="&#xe92b;" glyph-name="menu-dot" d="M512 533.333c-54.285 0-98.461-47.859-98.461-106.667s44.177-106.667 98.461-106.667c54.285 0 98.462 47.859 98.462 106.667s-44.177 106.667-98.462 106.667zM183.795 533.333c-54.285 0-98.461-47.859-98.461-106.667s44.176-106.667 98.461-106.667c54.285 0 98.462 47.859 98.462 106.667s-44.177 106.667-98.462 106.667zM840.205 533.333c-54.285 0-98.462-47.859-98.462-106.667s44.177-106.667 98.462-106.667c54.285 0 98.462 47.859 98.462 106.667s-44.177 106.667-98.462 106.667z" />
<glyph unicode="&#xe92c;" glyph-name="check-double" d="M671.77 648.665c-16.555 16.706-43.529 16.917-60.339 0.469l-315.379-311.095-137.098 141.653c-16.352 17.011-43.422 17.57-60.463 1.25-17.042-16.32-17.602-43.341-1.25-60.348 0.074-0.077 0.146-0.149 0.22-0.226l167.162-172.898c8-8.145 18.934-12.757 30.362-12.804h0.47c11.212 0.034 21.962 4.463 29.934 12.335l345.993 341.441c16.717 16.545 16.887 43.464 0.388 60.222zM521.199 247.471c7.979-8.124 18.88-12.736 30.276-12.804h0.469c11.213 0.034 21.965 4.463 29.935 12.335l345.997 341.441c15.684 17.625 14.080 44.6-3.575 60.253-16.009 14.191-40.064 14.377-56.29 0.438l-315.251-311.095-11.247 11.652c-16.35 17.007-43.422 17.57-60.463 1.25-17.045-16.32-17.604-43.337-1.254-60.348 0.077-0.077 0.149-0.154 0.222-0.23l41.182-42.893z" />
<glyph unicode="&#xe92d;" glyph-name="trash" d="M857.6 732.445h-119.040c-8.913 40.128-32.495 76.183-66.769 102.090s-77.146 40.081-121.391 40.132h-76.8c-44.245-0.052-87.117-14.225-121.392-40.132s-57.855-61.962-66.768-102.090h-119.040c-10.184 0-19.951-3.746-27.153-10.414s-11.247-15.712-11.247-25.142c0-9.43 4.046-18.473 11.247-25.141s16.969-10.414 27.153-10.414h38.4v-462.221c0.061-47.134 20.309-92.318 56.303-125.649 35.994-33.327 84.794-52.075 135.697-52.13h230.4c50.901 0.055 99.703 18.803 135.697 52.13 35.994 33.331 56.243 78.515 56.303 125.649v462.221h38.4c10.185 0 19.951 3.746 27.153 10.414s11.247 15.712 11.247 25.141c0 9.43-4.045 18.474-11.247 25.142s-16.969 10.414-27.153 10.414zM473.6 803.555h76.8c23.817-0.027 47.044-6.875 66.496-19.607 19.447-12.731 34.167-30.722 42.138-51.504h-294.067c7.971 20.783 22.691 38.773 42.14 51.504s42.677 19.58 66.494 19.607zM742.4 199.113c0-28.292-12.139-55.424-33.741-75.426-21.606-20.002-50.906-31.241-81.459-31.241h-230.4c-30.553 0-59.855 11.238-81.459 31.241s-33.741 47.134-33.741 75.426v462.221h460.8v-462.221zM435.2 234.667c10.185 0 19.951 3.746 27.153 10.415s11.247 15.71 11.247 25.139v213.333c0 9.429-4.045 18.475-11.247 25.143s-16.969 10.415-27.153 10.415c-10.185 0-19.951-3.746-27.153-10.415s-11.247-15.714-11.247-25.143v-213.333c0-9.429 4.046-18.47 11.247-25.139s16.969-10.415 27.153-10.415zM588.8 234.667c10.185 0 19.951 3.746 27.153 10.415s11.247 15.71 11.247 25.139v213.333c0 9.429-4.045 18.475-11.247 25.143s-16.969 10.415-27.153 10.415c-10.185 0-19.951-3.746-27.153-10.415s-11.247-15.714-11.247-25.143v-213.333c0-9.429 4.045-18.47 11.247-25.139s16.969-10.415 27.153-10.415z" />
<glyph unicode="&#xe92e;" glyph-name="search" d="M887.023 118.187l-190.848 190.852c52.006 63.607 77.581 144.772 71.424 226.706s-43.571 158.367-104.499 213.49c-60.932 55.123-140.715 84.719-222.857 82.665-82.138-2.054-160.345-35.599-218.444-93.699s-91.645-136.306-93.699-218.444c-2.054-82.142 27.542-161.924 82.665-222.857 55.123-60.928 131.556-98.342 213.49-104.499s163.099 19.418 226.706 71.424l190.852-190.848c6.029-5.824 14.106-9.050 22.49-8.977s16.405 3.435 22.332 9.365c5.931 5.926 9.293 13.948 9.365 22.332s-3.153 16.461-8.977 22.49zM448.759 255.45c-50.589 0-100.044 15.002-142.108 43.106-42.064 28.109-74.849 68.058-94.21 114.799-19.36 46.737-24.425 98.167-14.556 147.787s34.231 95.196 70.004 130.969c35.773 35.773 81.35 60.134 130.969 70.004s101.050 4.804 147.787-14.556c46.741-19.36 86.69-52.145 114.799-94.21 28.105-42.065 43.106-91.519 43.106-142.108-0.077-67.819-27.051-132.834-75.004-180.787s-112.969-74.927-180.787-75.004z" />
<glyph unicode="&#xe92f;" glyph-name="giftcode" d="M717.193 48.956h-491.459c-7.771 2.381-16.059 3.785-23.234 7.296-27.904 13.683-40.663 36.599-40.663 66.85 0.040 106.253 0 212.489 0.020 318.741 0 2.069 0 4.16 0.199 6.225 0.954 10.27 8.486 18.581 18.821 20.339 4.154 0.704 8.427 0.819 12.66 0.819 112.391 0.038 224.783 0.038 337.194 0.038 2.842 0 5.683 0 8.525 0-16.175 7.731-32.294 13.487-48.452 19.247-104.661 37.355-209.341 74.693-314.001 112.069-17.868 6.383-23.313 17.488-16.953 34.741 9.878 26.837 19.815 53.635 29.792 80.432 5.863 15.751 15.005 29.12 29.713 38.313 21.226 13.252 43.585 14.502 66.898 6.129 23.571-8.451 47.183-16.766 71.549-25.431 0 11.359-1.312 22.133 0.239 32.497 6.301 42.451 43.108 75.729 86.714 79.398 43.127 3.63 85.124-22.094 98.637-62.301 5.329-15.848 6.959-32.926 9.937-49.516 2.308-12.862 4.058-25.803 6.263-40.031 4.826 4.137 8.384 7.183 11.964 10.227 16.397 13.975 32.277 28.574 49.289 41.807 33.468 26.056 81.289 25.529 116.702-0.371 33.391-24.436 46.528-71.063 31.125-109.123-6.080-15.009-15.603-27.5-28.083-38.84 2.645-1.073 4.493-1.893 6.379-2.576 23.117-8.276 46.268-16.454 69.346-24.826 39.629-14.385 58.867-48.601 46.801-88.025-9.557-31.249-22.059-61.636-33.903-92.16-4.574-11.789-16.994-16.32-29.794-12.395-5.901 1.813-11.725 3.921-18.364 6.165v-10.598c0-74.812 0-149.619 0-224.431 0-11.439 0.277-22.874-0.299-34.274-1.071-20.514-10.057-37.261-26.133-50.513-10.893-8.994-23.851-12.996-37.346-15.923h-0.081zM209.516 422.251v-7.791c0-97.079 0-194.159 0-291.243 0-18.931 8.824-27.52 28.143-27.52 51.396-0.017 102.772 0 154.167 0 2.524 0 5.048 0.294 7.513 0.452v326.101h-189.823zM543.433 422.601v-326.434c1.391-0.213 2.185-0.427 2.961-0.427 54.315-0.021 108.634-0.119 162.953 0.038 14.409 0.038 23.906 9.894 23.927 24.512 0.081 91.93 0 183.838 0.158 275.767 0 4.8-1.847 6.733-6.14 8.196-14.49 4.937-28.757 10.479-43.307 15.262-5.406 1.775-11.29 2.91-16.973 2.948-38.161 0.252-76.318 0.137-114.458 0.137h-9.122zM467.686 645.218c-1.408 0.8-2.244 1.444-3.2 1.776-65.585 23.401-131.151 46.862-196.817 70.107-14.668 5.192-26.851-0.703-32.376-15.185-7.592-19.908-14.886-39.914-22.26-59.88-0.497-1.327-0.556-2.811-0.874-4.489 74.431-26.544 148.424-52.912 223.113-79.554 10.91 29.374 21.645 58.221 32.414 87.224zM569.604 510.097c75.247-26.837 149.359-53.282 223.851-79.846 7.868 21.235 15.381 41.417 22.835 61.619 6.699 18.189 1.429 29.039-17.353 35.733-59.601 21.276-119.206 42.55-178.829 63.805-5.867 2.089-11.746 4.099-17.967 6.265-10.931-29.413-21.564-58.065-32.538-87.593v0.017zM494.797 422.601c-13.295 0-25.719-0.448-38.101 0.175-7.492 0.371-9.242-2.129-9.22-9.152 0.218-103.074 0.141-206.148 0.158-309.239 0-2.731 0.282-5.466 0.439-8.179h46.703v326.396h0.021zM513.66 680.213c-4.493 28.378-7.774 56.718-13.734 84.492-5.666 26.388-36.194 41.553-62.229 32.985-19.297-6.343-32.673-23.421-33.686-42.939-1.053-20.318 9.957-39.016 29.257-46.53 25.519-9.954 51.511-18.737 77.312-27.988 0.653-0.234 1.468-0.039 3.059-0.039l0.021 0.020zM584.192 653.65c29.158-10.091 56.666-20.943 84.983-29.004 21.568-6.129 44.322 6.48 53.862 26.33 9.54 19.869 3.797 43.739-13.854 57.499-18.223 14.209-42.65 14.56-60.817 0.449-7.868-6.109-15.223-12.881-22.775-19.401-13.436-11.613-26.85-23.246-41.417-35.873h0.017zM524.868 526.042c11.008 29.747 21.662 58.555 32.495 87.792-15.445 5.484-29.751 10.559-44.698 15.868-10.991-29.589-21.705-58.416-32.555-87.673 15.083-5.387 29.431-10.5 44.757-15.987z" />
<glyph unicode="&#xe930;" glyph-name="mini-game" d="M785.118 228.497v343.799c0 2.808-3.413 283.052-291.315 302.14-15.309 1.293-30.583-2.876-43.315-11.823s-22.165-22.139-26.747-37.408c-6.922-31.572-21.555-60.746-42.482-84.697s-47.438-41.867-76.965-52.012c-19.157-7.867-35.611-21.534-47.236-39.238s-17.889-38.63-17.982-60.078c0.018-18.613 7.125-36.459 19.761-49.62 12.637-13.16 29.77-20.562 47.641-20.584h144.94c-8.806-27.093-23.040-51.93-41.754-72.862s-41.487-37.487-66.807-48.563c-30.506-13.897-56.52-36.655-74.926-65.553s-28.425-62.711-28.856-97.387v-6.046c-22.809-8.354-42.042-24.849-54.293-46.562s-16.729-47.241-12.642-72.060c4.088-24.819 16.477-47.334 34.975-63.552s41.909-25.097 66.088-25.058h477.79c24.141 0.009 47.505 8.909 65.963 25.122s30.818 38.694 34.901 63.484c4.083 24.785-0.375 50.274-12.587 71.97-12.211 21.692-31.39 38.195-54.153 46.588zM370.842 332.715c41.937 18.799 78.502 48.559 106.154 86.4 27.652 37.837 45.457 82.47 51.686 129.578 0.811 5.090 0.55 10.303-0.764 15.278-1.318 4.974-3.661 9.59-6.861 13.527-3.204 3.937-7.189 7.101-11.682 9.271-4.497 2.171-9.391 3.296-14.345 3.299l-187.701-0.889c0.13 7.288 2.355 14.368 6.389 20.324s9.69 10.516 16.238 13.089c38.81 14.154 73.673 38.051 101.505 69.577 27.836 31.526 47.782 69.71 58.078 111.174 59.49 0.515 116.766-23.482 159.347-66.76s67.012-102.33 67.977-164.289v-337.684h-409.533c0.262 21.018 6.413 41.498 17.696 58.927s27.206 31.044 45.816 39.177zM750.993 92.425h-477.79c-9.051 0-17.732 3.746-24.132 10.411-6.4 6.669-9.996 15.71-9.996 25.135 0 9.429 3.596 18.47 9.996 25.135 6.4 6.669 15.081 10.411 24.132 10.411h477.79c9.050 0 17.728-3.742 24.128-10.411 6.404-6.665 9.997-15.706 9.997-25.135 0-9.425-3.593-18.466-9.997-25.135-6.4-6.665-15.078-10.411-24.128-10.411z" />
<glyph unicode="&#xe931;" glyph-name="event" d="M621.901 305.886c233.638 1.173 316.766 124.907 316.766 231.003 0 59.627-42.206 109.511-98.274 121.565 4.834 13.76 9.028 26.382 11.874 35.947 12.553 42.418 4.407 87.253-22.293 122.987-27.234 36.373-68.873 57.28-114.274 57.28h-407.397c-45.404 0-87.075-20.907-114.311-57.315-26.703-35.733-34.809-80.569-22.258-122.951 2.845-9.565 7.005-22.187 11.875-35.947-56.071-12.053-98.275-61.938-98.275-121.565 0-106.096 83.165-229.83 316.765-231.003 1.991-10.739 3.235-21.692 3.235-32.819v-109.513c0-64.922-54.613-70.827-71.111-71.108h-35.555c-19.662 0-35.555-15.893-35.555-35.558 0-19.661 15.893-35.554 35.555-35.554h426.667c19.661 0 35.554 15.893 35.554 35.554 0 19.665-15.893 35.558-35.554 35.558h-35.273c-16.781 0.282-71.394 6.187-71.394 71.108v109.513c0 11.127 1.246 22.080 3.234 32.819zM814.221 590.222c29.406 0 53.333-23.929 53.333-53.333 0-72.321-57.207-149.228-214.613-158.935 7.859 10.633 16.853 20.48 27.093 29.193 61.833 52.553 104.286 122.773 132.518 183.431 0.602 0 1.067-0.356 1.668-0.356zM156.445 536.889c0 29.405 23.929 53.333 53.333 53.333 0.604 0 1.102 0.32 1.671 0.356 28.231-60.658 70.649-130.845 132.516-183.431 10.24-8.713 19.235-18.526 27.093-29.193-157.405 9.707-214.613 86.613-214.613 158.935zM459.127 92.446c10.492 19.234 17.318 42.453 17.318 71.108v109.513c0 72.926-31.505 141.513-86.437 188.233-62.897 53.474-119.004 148.159-150.080 253.225-6.115 20.729-2.133 42.667 11.058 60.231 13.653 18.311 34.56 28.8 57.315 28.8h407.359c22.758 0 43.665-10.489 57.318-28.764 13.12-17.6 17.135-39.538 11.055-60.231-31.108-105.138-87.215-199.787-150.080-253.261-54.933-46.686-86.434-115.307-86.434-188.233v-109.513c0-28.655 6.793-51.874 17.314-71.108h-105.707zM433.459 527.539c-9.388 6.47-13.335 18.416-9.601 29.225l18.455 57.102-48.57 35.555c-11.627 8.533-14.151 24.853-5.617 36.48 4.907 6.685 12.729 10.667 21.013 10.667h59.769l18.167 56.64c4.587 13.76 19.452 21.156 33.212 16.569 7.821-2.596 13.973-8.747 16.567-16.569l18.133-56.64h59.767c14.4 0 26.099-11.662 26.099-26.097 0-8.356-3.981-16.178-10.701-21.085l-48.572-35.555 18.453-57.103c4.412-13.724-3.127-28.443-16.887-32.889-7.966-2.56-16.674-1.139-23.433 3.806l-47.748 35.127-47.787-35.093c-9.105-6.793-21.547-6.827-30.72-0.141z" />
<glyph unicode="&#xe932;" glyph-name="p2p" d="M938.667 572.435c0 166.641-135.565 302.208-302.208 302.208-166.639 0-302.208-135.567-302.208-302.208s135.569-302.21 302.208-302.21c166.643 0 302.208 135.569 302.208 302.21zM636.459 341.333c-127.424 0-231.1 103.676-231.1 231.101s103.676 231.1 231.1 231.1c127.424 0 231.1-103.675 231.1-231.1s-103.676-231.101-231.1-231.101zM608.405 192.329c15.893-11.52 19.452-33.741 7.932-49.634-55.074-75.977-143.923-121.344-237.644-121.344-161.734 0-293.319 131.584-293.319 293.321 0 93.717 45.367 182.532 121.345 237.64 15.928 11.52 38.149 8 49.633-7.928 11.52-15.892 8-38.113-7.929-49.633-57.597-41.741-91.978-109.043-91.978-180.045 0-122.517 99.693-222.212 222.212-222.212 71.036 0 138.338 34.381 180.079 91.942 11.486 15.927 33.741 19.486 49.634 7.927l0.034-0.034zM753.963 634.654c0 49.455-39.817 89.631-89.097 90.484v16.852c0 15.715-12.727 28.443-28.442 28.443s-28.446-12.728-28.446-28.443v-16.675h-23.181c-25.489 0-46.217-20.728-46.217-46.22v-213.321c0-25.493 20.727-46.221 46.217-46.221h23.181v-16c0-15.714 12.732-28.442 28.446-28.442s28.442 12.727 28.442 28.442v16h5.086c49.988 0 90.662 40.674 90.662 90.662 0 25.847-10.846 49.17-28.267 65.738 13.474 15.822 21.615 36.336 21.615 58.7zM595.465 668.43h67.836c18.633 0 33.779-15.146 33.779-33.776s-15.147-33.776-33.779-33.776h-67.836v67.552zM669.914 476.437h-74.449v67.554h74.449c18.633 0 33.779-15.147 33.779-33.775 0-18.633-15.147-33.779-33.779-33.779zM919.113 116.459l-79.074-83.947c-6.967-7.394-16.422-11.162-25.882-11.162-8.747 0-17.527 3.2-24.388 9.668-14.293 13.44-14.933 35.947-1.493 50.274l44.015 46.72h-107.055c-19.622 0-35.554 15.927-35.554 35.554 0 19.622 15.932 35.554 35.554 35.554h107.055l-44.053 46.716c-13.44 14.293-12.796 36.8 1.493 50.274 14.259 13.44 36.766 12.8 50.274-1.493l79.782-84.689c25.207-25.207 25.207-67.482-0.747-93.47h0.073zM104.147 686.065c-25.207 25.243-25.207 67.517 0.747 93.471l79.036 83.943c13.475 14.328 35.98 14.968 50.273 1.493s14.968-35.981 1.493-50.273l-44.016-46.718h107.017c19.626 0 35.554-15.928 35.554-35.554s-15.928-35.554-35.554-35.554h-107.053l44.052-46.718c13.439-14.293 12.799-36.798-1.493-50.273-6.862-6.471-15.608-9.67-24.39-9.67-9.457 0-18.879 3.733-25.883 11.164l-79.783 84.689z" />
<glyph unicode="&#xe933;" glyph-name="triangle-arrow-left" d="M86.682 481.481c14.879 139.404 254.557 393.187 633.488 393.186 330.027-10.842 244.079-820.442 19.789-851.247-178.551-24.521-684.091 169.353-653.277 458.061z" />
<glyph unicode="&#xe934;" glyph-name="triangle-arrow-right" d="M937.318 481.481c-14.878 139.404-254.558 393.187-633.489 393.186-330.027-10.842-244.079-820.442-19.787-851.247 178.55-24.521 684.090 169.353 653.276 458.061z" />
<glyph unicode="&#xe935;" glyph-name="up-loading" d="M511.305 106.709c-63.441 0-126.876 0-190.301 0-86.991 0-149.765 54.66-150.211 130.65-0.167 26.526-0.167 53.056 0 79.599 0.168 27.354 19.139 44.954 48.155 45.005 29.015 0.047 48.238-17.434 48.433-44.762s0-54.025 0-81.037c0.223-28.331 19.279-44.834 51.81-44.86 128.507 0 257.002 0 385.488 0 32.559 0 51.644 16.529 51.895 44.834 0.222 27.012 0 54.025 0 81.037s19.277 44.834 48.405 44.787c29.124-0.051 48.375-17.651 48.124-44.979-0.307-34.547 1.899-69.457-3.068-103.543-9.097-62.362-69.943-106.389-142.148-106.684-65.37-0.171-130.987-0.047-196.582-0.047zM463.765 643.715c-7.364-5.997-11.691-9.289-15.706-12.824-30.914-27.28-61.66-54.732-92.712-81.915-22.041-19.308-52.758-20.72-72.678-3.827-19.921 16.895-19.139 44.614 2.539 63.679 63.109 55.488 126.422 110.781 189.94 165.878 22.319 19.504 51.503 19.504 73.822 0 63.945-55.422 127.633-111.081 191.057-166.975 20.868-18.406 20.979-46.077 1.591-62.607-19.392-16.531-50.219-15.797-71.509 2.658-31.526 27.427-62.579 55.293-93.879 82.89-4.045 3.56-8.371 6.875-14.818 12.19-0.418-7.655-0.917-12.604-0.917-17.553 0-87.254 0.137-174.484 0-261.737 0-32.742-32.977-52.22-67.268-40.567-18.97 6.46-29.265 20.843-29.265 41.907-0.111 86.302-0.111 172.599 0 258.886l-0.196 19.918z" />
<glyph unicode="&#xe936;" glyph-name="arrow" d="M862.4 832c-19.2 0-38.4-14.4-38.4-38.4v-124.8c-72 100.8-187.2 163.2-312 163.2-196.8 0-360-148.8-384-345.6 0-19.2 14.4-38.4 33.6-38.4h4.8c19.2 0 33.6 14.4 33.6 33.6 19.2 158.4 153.6 278.4 312 278.4 105.6 0 206.4-57.6 264-144h-129.6c-19.2 0-38.4-14.4-38.4-38.4s14.4-33.6 38.4-33.6h216c19.2 0 33.6 14.4 33.6 33.6v216c0 24-14.4 38.4-33.6 38.4zM862.4 448c-19.2 0-38.4-14.4-38.4-33.6-14.4-158.4-148.8-278.4-312-278.4-105.601 0-206.401 57.6-264 144h129.6c19.2 0 38.4 14.4 38.4 38.4s-14.4 33.6-33.6 33.6h-216c-24 0-38.4-14.4-38.4-38.4v-216c0-19.2 14.4-33.6 38.4-33.6s38.4 14.4 38.4 38.4v124.8c67.2-100.8 182.4-163.2 307.2-163.2 196.8 0 360 148.8 384 345.6 0 19.2-14.4 38.4-33.6 38.4z" />
<glyph unicode="&#xe937;" glyph-name="eye" d="M912.597 536.381c-55.125 86.498-180.518 231.619-400.597 231.619s-345.472-145.121-400.598-231.619c-17.041-26.557-26.068-57.162-26.068-88.381s9.027-61.824 26.068-88.38c55.126-86.498 180.52-231.62 400.598-231.62s345.472 145.122 400.597 231.62c17.041 26.556 26.069 57.161 26.069 88.38s-9.028 61.824-26.069 88.381zM851.998 395.473c-47.343-74.172-154.5-198.989-339.998-198.989-185.496 0-292.656 124.817-339.998 198.989-10.125 15.782-15.488 33.971-15.488 52.527s5.363 36.745 15.488 52.527c47.342 74.172 154.502 198.987 339.998 198.987 185.498 0 292.655-124.678 339.998-198.987 10.125-15.782 15.488-33.971 15.488-52.527s-5.363-36.745-15.488-52.527zM512 619.215c-35.149 0-69.508-10.042-98.732-28.855-29.225-18.813-52.002-45.553-65.453-76.841-13.451-31.283-16.97-65.711-10.113-98.923s23.782-63.718 48.636-87.663c24.854-23.945 56.52-40.252 90.991-46.857 34.475-6.609 70.204-3.217 102.677 9.741s60.228 34.906 79.757 63.061c19.524 28.156 29.948 61.257 29.948 95.121-0.055 45.393-18.795 88.91-52.113 121.007-33.314 32.097-78.481 50.153-125.598 50.208zM512 345.271c-21.090 0-41.702 6.025-59.238 17.314-17.536 11.285-31.202 27.332-39.272 46.101-8.070 18.773-10.182 39.428-6.068 59.354 4.114 19.93 14.269 38.234 29.182 52.599 14.912 14.367 33.911 24.151 54.596 28.115 20.681 3.964 42.121 1.929 61.606-5.846 19.482-7.776 36.134-20.942 47.851-37.838 11.716-16.892 17.971-36.753 17.971-57.071 0-27.247-11.234-53.376-31.232-72.64s-47.117-30.089-75.396-30.089z" />
<glyph unicode="&#xe938;" glyph-name="news" d="M873.024 832h-722.050c-17.409 0-34.105-7.036-46.415-19.561s-19.226-29.511-19.226-47.223v-667.842c0.003-5.692 1.436-11.285 4.162-16.256s6.656-9.148 11.415-12.139c4.76-2.991 10.192-4.693 15.78-4.945 5.588-0.256 11.148 0.947 16.15 3.494l116.595 59.315 116.595-59.315c4.56-2.321 9.588-3.529 14.687-3.529s10.127 1.207 14.687 3.529l116.595 59.315 116.595-59.315c4.561-2.321 9.587-3.529 14.686-3.529s10.129 1.207 14.69 3.529l116.591 59.315 116.595-59.315c5.005-2.547 10.564-3.75 16.154-3.494 5.585 0.252 11.017 1.954 15.778 4.945s8.691 7.168 11.418 12.139c2.726 4.971 4.156 10.564 4.16 16.256v667.842c0 17.712-6.916 34.699-19.226 47.223s-29.005 19.561-46.417 19.561zM873.024 151.386l-83.772 42.658c-4.561 2.321-9.591 3.529-14.69 3.529s-10.125-1.207-14.686-3.529l-116.595-59.354-116.595 59.354c-4.557 2.321-9.587 3.529-14.686 3.529s-10.129-1.207-14.686-3.529l-116.596-59.354-116.595 59.354c-4.559 2.321-9.588 3.529-14.687 3.529s-10.127-1.207-14.687-3.529l-83.774-42.658v613.83h722.050v-613.83zM544.819 531.473c0 8.854 3.46 17.348 9.613 23.61 6.157 6.262 14.502 9.78 23.211 9.78h196.919c8.708 0 17.054-3.518 23.211-9.78 6.153-6.262 9.613-14.756 9.613-23.61 0-8.858-3.46-17.353-9.613-23.612-6.157-6.263-14.502-9.783-23.211-9.783h-196.919c-8.708 0-17.054 3.52-23.211 9.783-6.153 6.259-9.613 14.754-9.613 23.612zM544.819 397.905c0 8.853 3.46 17.348 9.613 23.612 6.157 6.259 14.502 9.779 23.211 9.779h196.919c8.708 0 17.054-3.52 23.211-9.779 6.153-6.263 9.613-14.758 9.613-23.612 0-8.858-3.46-17.353-9.613-23.616-6.157-6.259-14.502-9.779-23.211-9.779h-196.919c-8.708 0-17.054 3.52-23.211 9.779-6.153 6.263-9.613 14.758-9.613 23.616zM249.436 297.728h196.922c8.708 0 17.054 3.516 23.211 9.779 6.153 6.263 9.613 14.754 9.613 23.612v267.136c0 8.856-3.46 17.35-9.613 23.612-6.157 6.262-14.502 9.78-23.211 9.78h-196.922c-8.704 0-17.053-3.518-23.207-9.78s-9.613-14.755-9.613-23.612v-267.136c0-8.858 3.458-17.348 9.613-23.612s14.503-9.779 23.207-9.779zM282.256 564.864h131.282v-200.354h-131.282v200.354z" />
<glyph unicode="&#xe939;" glyph-name="promotion" d="M514.146 806.4c17.152 0 30.016-4.267 42.88-17.067l30.016-29.867c25.728-25.6 60.032-38.4 94.336-38.4h42.884c17.152 0 30.016-4.267 42.88-17.067s17.152-25.6 17.152-42.667v-42.667c0-34.133 12.864-68.267 38.592-93.867l34.308-34.133c12.864-12.8 17.152-25.6 17.152-42.667 0-8.533 0-17.067-4.288-21.333-4.288-8.533-8.576-12.8-12.864-21.333l-30.020-29.867c-25.728-25.6-38.592-59.733-38.592-93.867v-42.667c0-34.133-25.728-59.733-60.032-59.733h-42.88c-34.308 0-68.612-12.8-94.34-38.4l-34.304-34.133c-12.864-12.8-25.728-17.067-42.88-17.067-17.156 0-30.020 4.267-42.884 17.067l-30.016 29.867c-25.728 25.6-60.033 38.4-94.338 38.4h-42.881c-17.152 0-30.017 4.267-42.881 17.067s-17.152 25.6-17.152 42.667v42.667c0 34.133-12.864 68.267-38.593 93.867l-34.305 34.133c-12.864 12.8-17.152 25.6-17.152 42.667s4.288 29.867 17.152 42.667l30.017 29.867c25.728 25.6 38.593 59.733 38.593 93.867v42.667c0 34.133 25.729 59.733 60.034 59.733h42.881c34.305 0 68.61 12.8 94.338 38.4l34.304 34.133c12.864 12.8 25.728 17.067 42.884 17.067zM514.146 874.667c-34.308 0-68.612-12.8-90.052-38.4l-34.305-29.867c-8.576-12.8-25.729-17.067-42.881-17.067h-42.881c-72.898 0-128.643-55.467-128.643-128v-42.667c0-17.067-8.576-34.133-17.152-46.933l-34.305-34.133c-25.728-21.333-38.593-55.467-38.593-89.6s12.864-68.267 38.593-89.6l30.017-29.867c12.864-12.8 17.152-29.867 17.152-46.933v-42.667c0-34.133 12.864-68.267 38.593-89.6 25.729-25.6 60.034-42.667 94.339-42.667h42.881c17.152 0 34.305-8.533 47.169-17.067l30.017-29.867c25.728-25.6 55.744-38.4 90.052-38.4 34.304 0 64.32 12.8 90.048 38.4l30.016 29.867c12.864 12.8 30.016 17.067 47.168 17.067h42.884c72.896 0 128.644 59.733 128.644 128v42.667c0 17.067 8.576 34.133 17.152 46.933l30.016 29.867c12.864 12.8 21.44 25.6 30.016 42.667s8.576 34.133 8.576 51.2-12.864 68.267-38.592 89.6l-30.016 29.867c-8.576 12.8-12.864 29.867-12.864 46.933v42.667c0 34.133-12.868 68.267-38.596 89.6-25.728 25.6-60.032 42.667-94.336 42.667h-42.884c-17.152 0-34.304 8.533-47.168 17.067l-30.016 29.867c-21.44 25.6-55.744 38.4-90.048 38.4zM401.050 593.083c21.333 0 38.4-17.067 38.4-38.4s-17.066-38.4-38.4-38.4c-8.533 0-21.333 4.267-25.6 12.8-8.533 8.533-8.533 17.066-8.533 29.866 0 21.333 17.067 34.133 34.133 34.133zM426.667 311.467c-8.533-8.533-17.067-12.8-25.6-12.8s-17.067 4.267-25.6 12.8c-12.8 12.8-12.8 38.4 0 51.2l221.867 221.867c8.533 8.533 17.067 12.8 25.6 12.8s21.333-4.267 25.6-12.8c8.533-8.533 12.8-17.067 12.8-25.6s-4.267-21.333-12.8-25.6l-221.867-221.867zM657.067 324.267c0-4.267-4.267-8.533-8.533-12.8s-8.533-4.267-12.8-8.533c-4.267-4.267-8.533-4.267-12.8-4.267s-8.533 0-12.8 4.267c-4.267 0-8.533 4.267-12.8 8.533s-4.267 8.533-8.533 12.8c0 4.267-4.267 8.533-4.267 12.8 0 8.533 4.267 21.333 12.8 25.6 8.533 8.533 17.067 12.8 25.6 12.8s21.333-4.267 25.6-12.8c8.533-8.533 12.8-17.067 12.8-25.6-4.267-4.267-4.267-8.533-4.267-12.8z" />
<glyph unicode="&#xe93a;" glyph-name="guide" d="M512 874.667c-234.667 0-426.667-192-426.667-426.667s192-426.667 426.667-426.667c234.667 0 426.667 192 426.667 426.667s-192 426.667-426.667 426.667zM512 98.133c-192 0-349.867 157.867-349.867 349.867s157.867 349.867 349.867 349.867c192 0 349.867-157.867 349.867-349.867s-157.867-349.867-349.867-349.867zM588.8 238.933c-8.533-4.267-12.8-4.267-21.333-4.267-12.8 0-25.6 4.267-29.867 8.533s-8.533 12.8-8.533 25.6c0 4.267 0 12.8 4.267 21.333 0 8.533 4.267 17.067 4.267 25.6l25.6 98.133c4.267 8.533 4.267 17.067 4.267 29.867 0 8.533 0 17.067 0 21.333 0 21.333-8.533 38.4-21.333 51.2s-34.133 17.067-59.733 17.067c-12.8 0-29.867-4.267-46.933-8.533-12.8-4.267-29.867-8.533-46.933-17.067-4.267 0-8.533-4.267-8.533-8.533v-4.267c0-8.533 4.267-17.067 12.8-12.8s12.8 4.267 21.333 4.267 25.6-4.267 29.867-8.533c4.267-4.267 8.533-12.8 8.533-25.6 0-8.533 0-12.8-4.267-21.333 0-8.533-4.267-17.067-4.267-25.6l-21.333-98.133c-4.267-8.533-4.267-21.333-4.267-25.6 0-8.533 0-17.067 0-25.6 0-21.333 8.533-38.4 21.333-51.2s34.133-21.333 64-21.333c17.067 0 34.133 4.267 46.933 8.533s25.6 8.533 46.933 17.067c4.267 0 4.267 4.267 8.533 8.533v4.267c-4.267 8.533-12.8 17.067-21.333 17.067zM550.4 712.533c-17.067 0-34.133-4.267-46.933-17.067s-21.333-25.6-21.333-42.667c0-17.067 8.533-29.867 21.333-42.667s29.867-17.067 46.933-17.067c17.067 0 34.133 4.267 46.933 17.067s17.067 25.6 17.067 42.667c0 17.067-4.267 29.867-17.067 42.667-12.8 8.533-29.867 17.067-46.933 17.067z" />
</font>
</defs>
</svg>
